<?xml version="1.0" standalone="no"?>
<!DOCTYPE svg PUBLIC "-//W3C//DTD SVG 1.1//EN" "http://www.w3.org/Graphics/SVG/1.1/DTD/svg11.dtd" >
<svg xmlns="http://www.w3.org/2000/svg" xmlns:xlink="http://www.w3.org/1999/xlink" version="1.1">
<metadata>
Created by FontForge 20200314 at Mon Oct  5 09:52:23 2020
 By Robert Madole
Copyright (c) Font Awesome
</metadata>
<!-- Font Awesome Pro 5.15.1 by @fontawesome - https://fontawesome.com License - https://fontawesome.com/license (Commercial License) --><defs>
<font id="FontAwesome5Pro-Solid" horiz-adv-x="512" >
  <font-face 
    font-family="Font Awesome 5 Pro Solid"
    font-weight="900"
    font-stretch="normal"
    units-per-em="512"
    panose-1="2 0 5 3 0 0 0 0 0 0"
    ascent="448"
    descent="-64"
    bbox="-0.0602244 -64.0526 640.024 448.096"
    underline-thickness="25"
    underline-position="-50"
    unicode-range="U+0020-F8FF"
  />
    <missing-glyph />
    <glyph glyph-name="heart" unicode="&#xf004;" 
d="M462.3 385.4c62.7998 -53.6006 66.1006 -149.801 9.7998 -207.9l-193.5 -199.8c-12.5 -12.9004 -32.7998 -12.9004 -45.2998 0l-193.5 199.8c-56.2002 58.0996 -52.8994 154.3 9.90039 207.9c54.7998 46.6992 136.399 38.2998 186.6 -13.6006l19.7002 -20.2998
l19.7002 20.2998c50.2998 51.9004 131.8 60.2998 186.6 13.6006z" />
    <glyph glyph-name="star" unicode="&#xf005;" horiz-adv-x="576" 
d="M259.3 430.2c11.7998 23.8994 45.7002 23.5996 57.4004 0l65.2998 -132.4l146.1 -21.2998c26.2002 -3.7998 36.7002 -36.0996 17.7002 -54.5996l-105.7 -103l25 -145.5c4.5 -26.3008 -23.1992 -45.9004 -46.3994 -33.7002l-130.7 68.7002l-130.7 -68.7002
c-23.2002 -12.2998 -50.8994 7.39941 -46.3994 33.7002l25 145.5l-105.7 103c-19 18.5 -8.5 50.7998 17.7002 54.5996l146.1 21.2998z" />
    <glyph glyph-name="tags" unicode="&#xf02c;" horiz-adv-x="640" 
d="M497.941 222.059c18.7441 -18.7441 18.7441 -49.1367 0 -67.8818l-204.118 -204.118c-18.7461 -18.7451 -49.1387 -18.7441 -67.8818 0l-211.883 211.883c-8.68848 8.68848 -14.0586 20.6943 -14.0586 33.9404v204.118c0 26.5098 21.4902 48 48 48h204.118
c13.2461 0 25.252 -5.37012 33.9404 -14.0586zM112 288c26.5098 0 48 21.4902 48 48s-21.4902 48 -48 48s-48 -21.4902 -48 -48s21.4902 -48 48 -48zM625.941 154.177l-204.118 -204.118c-18.7451 -18.7441 -49.1377 -18.7441 -67.8818 0l-0.360352 0.360352
l174.059 174.059c16.999 16.999 26.3604 39.6006 26.3604 63.6406s-9.3623 46.6406 -26.3604 63.6396l-196.242 196.242h48.7207c13.2461 0 25.252 -5.37012 33.9404 -14.0586l211.883 -211.883c18.7441 -18.7441 18.7441 -49.1367 0 -67.8818z" />
    <glyph glyph-name="bookmark" unicode="&#xf02e;" horiz-adv-x="384" 
d="M0 -64v464c0 26.5098 21.4902 48 48 48h288c26.5098 0 48 -21.4902 48 -48v-464l-192 112z" />
    <glyph glyph-name="font" unicode="&#xf031;" horiz-adv-x="448" 
d="M432 32c8.83105 0 16 -7.16895 16 -16v-32c0 -8.83105 -7.16895 -16 -16 -16h-128c-8.83105 0 -16 7.16895 -16 16v32c0 8.83105 7.16895 16 16 16h19.5801l-23.2998 64h-152.561l-23.2998 -64h19.5801c8.83105 0 16 -7.16895 16 -16v-32
c0 -8.83105 -7.16895 -16 -16 -16h-128c-8.83105 0 -16 7.16895 -16 16v32c0 8.83105 7.16895 16 16 16h23.4102l130.71 362.31c4.29297 12.6133 16.2363 21.6904 30.293 21.6904h0.00683594h47.1602l-0.00292969 0.00683594c14.0576 0 26.0098 -9.08398 30.3027 -21.6973
l130.71 -362.31h23.4102zM176.85 176h94.3008l-47.1504 129.49z" />
    <glyph glyph-name="bold" unicode="&#xf032;" horiz-adv-x="384" 
d="M333.49 210c34.4395 -27.54 55.5693 -71.1504 50.8301 -119.6c-6.86035 -70.6504 -70.2002 -122.4 -141 -122.4h-209.32c-8.83105 0 -16 7.16895 -16 16v48c0 8.83105 7.16895 16 16 16h31.8701v288h-31.8701c-8.83105 0 -16 7.16895 -16 16v48
c0 8.83105 7.16895 16 16 16h199.42c74.5801 0 134.45 -64.4902 127.07 -140.79c-2.43945 -24.5273 -12.1992 -47.1309 -27 -65.21zM145.66 336v-96h87.7598c26.4922 0 48 21.5078 48 48s-21.5078 48 -48 48h-87.7598zM233.42 48c30.9072 0 56 25.0928 56 56
s-25.0928 56 -56 56h-87.7598v-112h87.7598z" />
    <glyph glyph-name="italic" unicode="&#xf033;" horiz-adv-x="320" 
d="M320 400v-32c0 -8.83105 -7.16895 -16 -16 -16h-62.7598l-80 -320h46.7598c8.83105 0 16 -7.16895 16 -16v-32c0 -8.83105 -7.16895 -16 -16 -16h-192c-8.83105 0 -16 7.16895 -16 16v32c0 8.83105 7.16895 16 16 16h62.7598l80 320h-46.7598
c-8.83105 0 -16 7.16895 -16 16v32c0 8.83105 7.16895 16 16 16h192c8.83105 0 16 -7.16895 16 -16z" />
    <glyph glyph-name="text-height" unicode="&#xf034;" horiz-adv-x="576" 
d="M304 416c8.83105 0 16 -7.16895 16 -16v-96c0 -8.83105 -7.16895 -16 -16 -16h-32c-8.83105 0 -16 7.16895 -16 16v32h-56v-304h40c8.83105 0 16 -7.16895 16 -16v-32c0 -8.83105 -7.16895 -16 -16 -16h-160c-8.83105 0 -16 7.16895 -16 16v32
c0 8.83105 7.16895 16 16 16h40v304h-56v-32c0 -8.83105 -7.16895 -16 -16 -16h-32c-8.83105 0 -16 7.16895 -16 16v96c0 8.83105 7.16895 16 16 16h288zM560 80c15.6396 0 20.6396 -18 11.3096 -27.3096l-80 -80c-2.89551 -2.89453 -6.89844 -4.68555 -11.3115 -4.68555
c-4.41406 0 -8.41211 1.79102 -11.3076 4.68555l-80 80c-10.0107 10 -3 27.3096 11.3096 27.3096h48v224h-48c-15.6396 0 -20.6396 18 -11.3096 27.3096l80 80c2.89551 2.89453 6.89844 4.68555 11.3115 4.68555c4.41406 0 8.41211 -1.79102 11.3076 -4.68555l80 -80
c10.0205 -10 3 -27.3096 -11.3096 -27.3096h-48v-224h48z" />
    <glyph glyph-name="text-width" unicode="&#xf035;" horiz-adv-x="448" 
d="M432 416c8.83105 0 16 -7.16895 16 -16v-80c0 -8.83105 -7.16895 -16 -16 -16h-32c-8.83105 0 -16 7.16895 -16 16v16h-120v-112h24c8.83105 0 16 -7.16895 16 -16v-32c0 -8.83105 -7.16895 -16 -16 -16h-128c-8.83105 0 -16 7.16895 -16 16v32
c0 8.83105 7.16895 16 16 16h24v112h-120v-16c0 -8.83105 -7.16895 -16 -16 -16h-32c-8.83105 0 -16 7.16895 -16 16v80c0 8.83105 7.16895 16 16 16h416zM363.31 155.31l80 -80c2.89453 -2.89551 4.68555 -6.89844 4.68555 -11.3115
c0 -4.41406 -1.79102 -8.41211 -4.68555 -11.3076l-80 -80c-10 -10.0205 -27.3096 -3 -27.3096 11.3096v48h-224v-48c0 -15.6396 -18 -20.6396 -27.3096 -11.3096l-80 80c-2.89453 2.89551 -4.68555 6.89844 -4.68555 11.3115c0 4.41406 1.79102 8.41211 4.68555 11.3076
l80 80c10 10.0107 27.3096 3 27.3096 -11.3096v-48h224v48c0 15.6396 18 20.6396 27.3096 11.3096z" />
    <glyph glyph-name="play" unicode="&#xf04b;" horiz-adv-x="448" 
d="M424.4 233.3c31.5 -18.5 31.3994 -64.0996 0 -82.5996l-352 -208c-31.7002 -18.7998 -72.4004 3.7998 -72.4004 41.2998v416.1c0 41.8008 43.7998 58.2002 72.4004 41.3008z" />
    <glyph glyph-name="pause" unicode="&#xf04c;" horiz-adv-x="448" 
d="M144 -31h-96c-26.5 0 -48 21.5 -48 48v352c0 26.5 21.5 48 48 48h96c26.5 0 48 -21.5 48 -48v-352c0 -26.5 -21.5 -48 -48 -48zM448 17c0 -26.5 -21.5 -48 -48 -48h-96c-26.5 0 -48 21.5 -48 48v352c0 26.5 21.5 48 48 48h96c26.5 0 48 -21.5 48 -48v-352z" />
    <glyph glyph-name="stop" unicode="&#xf04d;" horiz-adv-x="448" 
d="M400 416c26.5 0 48 -21.5 48 -48v-352c0 -26.5 -21.5 -48 -48 -48h-352c-26.5 0 -48 21.5 -48 48v352c0 26.5 21.5 48 48 48h352z" />
    <glyph glyph-name="minus-circle" unicode="&#xf056;" 
d="M256 440c137 0 248 -111 248 -248s-111 -248 -248 -248s-248 111 -248 248s111 248 248 248zM124 152h264c6.59961 0 12 5.40039 12 12v56c0 6.59961 -5.40039 12 -12 12h-264c-6.59961 0 -12 -5.40039 -12 -12v-56c0 -6.59961 5.40039 -12 12 -12z" />
    <glyph glyph-name="calendar-alt" unicode="&#xf073;" horiz-adv-x="448" 
d="M0 -16v272h448v-272c0 -26.5 -21.5 -48 -48 -48h-352c-26.5 0 -48 21.5 -48 48zM320 180v-40c0 -6.59961 5.40039 -12 12 -12h40c6.59961 0 12 5.40039 12 12v40c0 6.59961 -5.40039 12 -12 12h-40c-6.59961 0 -12 -5.40039 -12 -12zM320 52v-40
c0 -6.59961 5.40039 -12 12 -12h40c6.59961 0 12 5.40039 12 12v40c0 6.59961 -5.40039 12 -12 12h-40c-6.59961 0 -12 -5.40039 -12 -12zM192 180v-40c0 -6.59961 5.40039 -12 12 -12h40c6.59961 0 12 5.40039 12 12v40c0 6.59961 -5.40039 12 -12 12h-40
c-6.59961 0 -12 -5.40039 -12 -12zM192 52v-40c0 -6.59961 5.40039 -12 12 -12h40c6.59961 0 12 5.40039 12 12v40c0 6.59961 -5.40039 12 -12 12h-40c-6.59961 0 -12 -5.40039 -12 -12zM64 180v-40c0 -6.59961 5.40039 -12 12 -12h40c6.59961 0 12 5.40039 12 12v40
c0 6.59961 -5.40039 12 -12 12h-40c-6.59961 0 -12 -5.40039 -12 -12zM64 52v-40c0 -6.59961 5.40039 -12 12 -12h40c6.59961 0 12 5.40039 12 12v40c0 6.59961 -5.40039 12 -12 12h-40c-6.59961 0 -12 -5.40039 -12 -12zM400 384c26.5 0 48 -21.5 48 -48v-48h-448v48
c0 26.5 21.5 48 48 48h48v48c0 8.7998 7.2002 16 16 16h32c8.7998 0 16 -7.2002 16 -16v-48h128v48c0 8.7998 7.2002 16 16 16h32c8.7998 0 16 -7.2002 16 -16v-48h48z" />
    <glyph glyph-name="thumbtack" unicode="&#xf08d;" horiz-adv-x="384" 
d="M298.028 233.733c47.9893 -22.3135 85.9717 -62.5508 85.9727 -113.733c0 -13.2549 -10.7451 -24 -24 -24h-136v-104.007c0 -1.2832 -0.307617 -2.50293 -0.844727 -3.57812l-24 -48c-2.94727 -5.89258 -11.3701 -5.88184 -14.3115 0l-24 48
c-0.555664 1.11133 -0.844727 2.33594 -0.844727 3.57812v104.007h-136c-13.2549 0 -24 10.7451 -24 24c0 50.7393 37.4648 91.1797 85.9717 113.733l12.2354 118.267h-42.207c-13.2549 0 -24 10.7451 -24 24v48c0 13.2549 10.7451 24 24 24h272
c13.2549 0 24 -10.7451 24 -24v-48c0 -13.2549 -10.7451 -24 -24 -24h-42.207z" />
    <glyph glyph-name="phone" unicode="&#xf095;" 
d="M493.4 423.4c10.8994 -2.5 18.5996 -12.2002 18.5996 -23.4004c0 -256.5 -207.9 -464 -464 -464c-11.2998 0 -20.9004 7.7998 -23.4004 18.5996l-24 104c-2.59961 11.3008 3.30078 22.9004 14 27.6006l112 48c9.80078 4.2002 21.2002 1.39941 28 -6.90039
l49.6006 -60.5996c78.2998 36.7002 141.2 100.5 177.2 177.2l-60.6006 49.5996c-8.2998 6.7002 -11.0996 18.2002 -6.89941 28l48 112c4.59961 10.5996 16.1992 16.5 27.5 13.9004z" />
    <glyph glyph-name="certificate" unicode="&#xf0a3;" 
d="M458.622 192.08l45.9844 -45.0039c13.7012 -12.9727 7.32227 -36.0371 -10.6641 -40.3389l-62.6504 -15.9902l17.6611 -62.0146c4.99023 -17.834 -11.8252 -34.665 -29.6611 -29.6719l-61.9941 17.667l-15.9834 -62.6709
c-4.33887 -18.1533 -27.8252 -24.1553 -40.3252 -10.668l-44.9893 46.001l-44.9912 -46.001c-12.6289 -13.3496 -35.8857 -7.90625 -40.3252 10.668l-15.9834 62.6709l-61.9941 -17.667c-17.832 -4.99121 -34.6523 11.833 -29.6611 29.6719l17.6611 62.0146
l-62.6504 15.9902c-17.9795 4.2998 -24.3721 27.3613 -10.6641 40.3389l45.9854 45.0039l-45.9854 45.0049c-13.7012 12.9707 -7.32227 36.0371 10.665 40.3379l62.6504 15.9902l-17.6611 62.0146c-4.99023 17.834 11.8242 34.665 29.6611 29.6709l61.9951 -17.667
l15.9834 62.6709c4.27832 17.9023 27.6953 24.0195 40.3252 10.6689l44.9893 -46.3418l44.9902 46.3428c12.7744 13.5039 36.0947 7.03027 40.3252 -10.6689l15.9834 -62.6709l61.9941 17.667c17.832 4.99219 34.6523 -11.833 29.6611 -29.6709l-17.6611 -62.0146
l62.6504 -15.9902c17.9795 -4.2998 24.3721 -27.3623 10.6641 -40.3389z" />
    <glyph glyph-name="copy" unicode="&#xf0c5;" horiz-adv-x="448" 
d="M320 0v-40c0 -13.2549 -10.7451 -24 -24 -24h-272c-13.2549 0 -24 10.7451 -24 24v368c0 13.2549 10.7451 24 24 24h72v-296c0 -30.8789 25.1211 -56 56 -56h168zM320 344c0 -13.2002 10.7998 -24 24 -24h104v-264c0 -13.2549 -10.7451 -24 -24 -24h-272
c-13.2549 0 -24 10.7451 -24 24v368c0 13.2549 10.7451 24 24 24h168v-104zM440.971 375.029c4.34473 -4.34473 7.0293 -10.3477 7.0293 -16.9707v-6.05859h-96v96h6.05859c6.62305 0 12.626 -2.68457 16.9707 -7.0293z" />
    <glyph glyph-name="save" unicode="&#xf0c7;" horiz-adv-x="448" 
d="M433.941 318.059c8.68848 -8.68848 14.0586 -20.6943 14.0586 -33.9404v-268.118c0 -26.5098 -21.4902 -48 -48 -48h-352c-26.5098 0 -48 21.4902 -48 48v352c0 26.5098 21.4902 48 48 48h268.118c13.2461 0 25.252 -5.37012 33.9404 -14.0586zM224 32
c35.3457 0 64 28.6543 64 64s-28.6543 64 -64 64s-64 -28.6543 -64 -64s28.6543 -64 64 -64zM320 336.52c0 3.31152 -1.34277 6.31348 -3.51465 8.48535l-3.48047 3.48047c-2.25 2.25098 -5.30176 3.51465 -8.48535 3.51465h-228.52c-6.62695 0 -12 -5.37305 -12 -12v-104
c0 -6.62695 5.37305 -12 12 -12h232c6.62695 0 12 5.37305 12 12v100.52z" />
    <glyph glyph-name="square" unicode="&#xf0c8;" horiz-adv-x="448" 
d="M400 416c26.5 0 48 -21.5 48 -48v-352c0 -26.5 -21.5 -48 -48 -48h-352c-26.5 0 -48 21.5 -48 48v352c0 26.5 21.5 48 48 48h352z" />
    <glyph glyph-name="sort" unicode="&#xf0dc;" horiz-adv-x="320" 
d="M41 160h238c21.4004 0 32.0996 -25.9004 17 -41l-119 -119c-9.40039 -9.40039 -24.5996 -9.40039 -33.9004 0l-119.1 119c-15.0996 15.0996 -4.40039 41 17 41zM296 265c15.0996 -15.0996 4.40039 -41 -17 -41h-238c-21.4004 0 -32.0996 25.9004 -17 41l119.1 119
c9.30078 9.40039 24.5 9.40039 33.9004 0z" />
    <glyph glyph-name="sort-down" unicode="&#xf0dd;" horiz-adv-x="320" 
d="M41 160h238c21.4004 0 32.0996 -25.9004 17 -41l-119 -119c-9.40039 -9.40039 -24.5996 -9.40039 -33.9004 0l-119.1 119c-15.0996 15.0996 -4.40039 41 17 41z" />
    <glyph glyph-name="sort-up" unicode="&#xf0de;" horiz-adv-x="320" 
d="M279 224h-238c-21.4004 0 -32.0996 25.9004 -17 41l119 119c9.40039 9.40039 24.5996 9.40039 33.9004 0l119 -119c15.1992 -15.0996 4.5 -41 -16.9004 -41z" />
    <glyph glyph-name="envelope" unicode="&#xf0e0;" 
d="M502.3 257.2c3.90039 3.09961 9.7002 0.200195 9.7002 -4.7002v-204.5c0 -26.5 -21.5 -48 -48 -48h-416c-26.5 0 -48 21.5 -48 48v204.4c0 5 5.7002 7.7998 9.7002 4.69922c22.3994 -17.3994 52.0996 -39.5 154.1 -113.6
c21.1006 -15.4004 56.7002 -47.7998 92.2002 -47.5996c35.7002 -0.300781 72 32.7998 92.2998 47.5996c102 74.0996 131.601 96.2998 154 113.7zM256 128c-23.2002 -0.400391 -56.5996 29.2002 -73.4004 41.4004c-132.699 96.2998 -142.8 104.8 -173.399 128.699
c-5.7998 4.60059 -9.2002 11.5 -9.2002 18.9004v19c0 26.5 21.5 48 48 48h416c26.5 0 48 -21.5 48 -48v-19c0 -7.40039 -3.40039 -14.4004 -9.2002 -18.9004c-30.5996 -24 -40.7002 -32.3994 -173.399 -128.699c-16.8008 -12.2002 -50.2002 -41.8008 -73.4004 -41.4004z" />
    <glyph glyph-name="spinner" unicode="&#xf110;" 
d="M304 400c0 -26.5098 -21.4902 -48 -48 -48s-48 21.4902 -48 48s21.4902 48 48 48s48 -21.4902 48 -48zM256 32c26.5098 0 48 -21.4902 48 -48s-21.4902 -48 -48 -48s-48 21.4902 -48 48s21.4902 48 48 48zM464 240c26.5098 0 48 -21.4902 48 -48s-21.4902 -48 -48 -48
s-48 21.4902 -48 48s21.4902 48 48 48zM96 192c0 -26.5098 -21.4902 -48 -48 -48s-48 21.4902 -48 48s21.4902 48 48 48s48 -21.4902 48 -48zM108.922 92.9219c26.5088 0 48 -21.4912 48 -48c0 -26.5098 -21.4902 -48 -48 -48s-48 21.4902 -48 48s21.4902 48 48 48z
M403.078 92.9219c26.5098 0 48 -21.4912 48 -48c0 -26.5098 -21.4902 -48 -48 -48s-48 21.4902 -48 48s21.4902 48 48 48zM108.922 387.078c26.5088 0 48 -21.4902 48 -48s-21.4902 -48 -48 -48s-48 21.4902 -48 48s21.4902 48 48 48z" />
    <glyph glyph-name="circle" unicode="&#xf111;" 
d="M256 440c137 0 248 -111 248 -248s-111 -248 -248 -248s-248 111 -248 248s111 248 248 248z" />
    <glyph glyph-name="info" unicode="&#xf129;" horiz-adv-x="192" 
d="M20 23.7715h20v144.457h-20c-11.0459 0 -20 8.9541 -20 20v47.7715c0 11.0459 8.9541 20 20 20h112c11.0459 0 20 -8.9541 20 -20v-212.229h20c11.0459 0 20 -8.9541 20 -20v-47.7715c0 -11.0459 -8.9541 -20 -20 -20h-152c-11.0459 0 -20 8.9541 -20 20v47.7715
c0 11.0459 8.9541 20 20 20zM96 448c39.7637 0 72 -32.2354 72 -72s-32.2354 -72 -72 -72s-72 32.2354 -72 72s32.2354 72 72 72z" />
    <glyph glyph-name="exclamation" unicode="&#xf12a;" horiz-adv-x="192" 
d="M176 16c0 -44.1123 -35.8877 -80 -80 -80s-80 35.8877 -80 80s35.8877 80 80 80s80 -35.8877 80 -80zM25.2598 422.801c-0.68457 13.709 10.2441 25.1992 23.9707 25.1992h93.5391c13.7266 0 24.6553 -11.4902 23.9707 -25.1992l-13.6006 -272
c-0.638672 -12.7725 -11.1807 -22.8008 -23.9697 -22.8008h-66.3398c-12.7891 0 -23.3311 10.0283 -23.9697 22.8008z" />
    <glyph glyph-name="superscript" unicode="&#xf12b;" 
d="M496 288c8.83105 0 16 -7.16895 16 -16v-32c0 -8.83105 -7.16895 -16 -16 -16h-96c-8.83105 0 -16 7.16895 -16 16v32c0 8.83105 7.16895 16 16 16h16v96h-16c-8.82422 0.0078125 -15.9775 7.18945 -15.9775 16.0156c0 2.57129 0.608398 5.00098 1.6875 7.1543l16 32
c2.62598 5.23926 8.03613 8.8252 14.29 8.83008h48c8.83105 0 16 -7.16895 16 -16v-144h16zM336 384c8.83105 0 16 -7.16895 16 -16v-48c0 -8.83105 -7.16895 -16 -16 -16h-33.4805l-77.8096 -112l77.8096 -112h33.4805c8.83105 0 16 -7.16895 16 -16v-48
c0 -8.83105 -7.16895 -16 -16 -16h-67c-5.41113 0.0273438 -10.1836 2.73047 -13.0596 6.87012l-79.9004 115l-79.9004 -115c-2.89062 -4.16016 -7.69531 -6.87012 -13.1396 -6.87012h-67c-8.83105 0 -16 7.16895 -16 16v48c0 8.83105 7.16895 16 16 16h33.4805l77.8096 112
l-77.8096 112h-33.4805c-8.83105 0 -16 7.16895 -16 16v48c0 8.83105 7.16895 16 16 16h67c5.41113 -0.0273438 10.1836 -2.73047 13.0596 -6.87012l79.9004 -115l79.9004 115c2.89062 4.16016 7.69531 6.87012 13.1396 6.87012h67z" />
    <glyph glyph-name="subscript" unicode="&#xf12c;" 
d="M496 0c8.83105 0 16 -7.16895 16 -16v-32c0 -8.83105 -7.16895 -16 -16 -16h-96c-8.83105 0 -16 7.16895 -16 16v32c0 8.83105 7.16895 16 16 16h16v96h-16c-8.82422 0.0078125 -15.9775 7.18945 -15.9775 16.0156c0 2.57129 0.608398 5.00098 1.6875 7.1543l16 32
c2.62598 5.23926 8.03613 8.8252 14.29 8.83008h48c8.83105 0 16 -7.16895 16 -16v-144h16zM336 384c8.83105 0 16 -7.16895 16 -16v-48c0 -8.83105 -7.16895 -16 -16 -16h-33.4805l-77.8096 -112l77.8096 -112h33.4805c8.83105 0 16 -7.16895 16 -16v-48
c0 -8.83105 -7.16895 -16 -16 -16h-67c-5.41113 0.0273438 -10.1836 2.73047 -13.0596 6.87012l-79.9004 115l-79.9004 -115c-2.89062 -4.16016 -7.69531 -6.87012 -13.1396 -6.87012h-67c-8.83105 0 -16 7.16895 -16 16v48c0 8.83105 7.16895 16 16 16h33.4805l77.8096 112
l-77.8096 112h-33.4805c-8.83105 0 -16 7.16895 -16 16v48c0 8.83105 7.16895 16 16 16h67c5.41113 -0.0273438 10.1836 -2.73047 13.0596 -6.87012l79.9004 -115l79.9004 115c2.89062 4.16016 7.69531 6.87012 13.1396 6.87012h67z" />
    <glyph glyph-name="shield" unicode="&#xf132;" 
d="M466.5 364.3c17.7998 -7.39941 29.5 -24.8994 29.5 -44.2998c0 -221.3 -135.9 -344.6 -221.6 -380.3c-11.8008 -4.90039 -25.1006 -4.90039 -36.9004 0c-107 44.5996 -221.5 181.8 -221.5 380.3c0 19.4004 11.7002 36.9004 29.5996 44.2998l192 80
c5.67578 2.35449 11.96 3.6543 18.4824 3.6543c6.52148 0 12.7432 -1.2998 18.418 -3.6543z" />
    <glyph glyph-name="calendar" unicode="&#xf133;" horiz-adv-x="448" 
d="M12 256h424c6.59961 0 12 -5.40039 12 -12v-260c0 -26.5 -21.5 -48 -48 -48h-352c-26.5 0 -48 21.5 -48 48v260c0 6.59961 5.40039 12 12 12zM448 300c0 -6.59961 -5.40039 -12 -12 -12h-424c-6.59961 0 -12 5.40039 -12 12v36c0 26.5 21.5 48 48 48h48v52
c0 6.59961 5.40039 12 12 12h40c6.59961 0 12 -5.40039 12 -12v-52h128v52c0 6.59961 5.40039 12 12 12h40c6.59961 0 12 -5.40039 12 -12v-52h48c26.5 0 48 -21.5 48 -48v-36z" />
    <glyph glyph-name="play-circle" unicode="&#xf144;" 
d="M256 440c137 0 248 -111 248 -248s-111 -248 -248 -248s-248 111 -248 248s111 248 248 248zM371.7 168c16.3994 9.09961 16.3994 32.7998 0 42l-176 107c-15.9004 8.7998 -35.7002 -2.59961 -35.7002 -21v-208c0 -18.5 19.9004 -29.7998 35.7002 -21z" />
    <glyph glyph-name="ticket" unicode="&#xf145;" horiz-adv-x="576" 
d="M576 240c-26.5098 0 -48 -21.4902 -48 -48s21.4902 -48 48 -48v-96c0 -26.5098 -21.4902 -48 -48 -48h-480c-26.5098 0 -48 21.4902 -48 48v96c26.5098 0 48 21.4902 48 48s-21.4902 48 -48 48v96c0 26.5098 21.4902 48 48 48h480c26.5098 0 48 -21.4902 48 -48v-96z" />
    <glyph glyph-name="file" unicode="&#xf15b;" horiz-adv-x="384" 
d="M224 312c0 -13.2002 10.7998 -24 24 -24h136v-328c0 -13.2998 -10.7002 -24 -24 -24h-336c-13.2998 0 -24 10.7002 -24 24v464c0 13.2998 10.7002 24 24 24h200v-136zM384 326.1v-6.09961h-128v128h6.09961c6.40039 0 12.5 -2.5 17 -7l97.9004 -98
c4.5 -4.5 7 -10.5996 7 -16.9004z" />
    <glyph glyph-name="file-alt" unicode="&#xf15c;" horiz-adv-x="384" 
d="M224 312c0 -13.2002 10.7998 -24 24 -24h136v-328c0 -13.2998 -10.7002 -24 -24 -24h-336c-13.2998 0 -24 10.7002 -24 24v464c0 13.2998 10.7002 24 24 24h200v-136zM288 76v8c0 6.59961 -5.40039 12 -12 12h-168c-6.59961 0 -12 -5.40039 -12 -12v-8
c0 -6.59961 5.40039 -12 12 -12h168c6.59961 0 12 5.40039 12 12zM288 140v8c0 6.59961 -5.40039 12 -12 12h-168c-6.59961 0 -12 -5.40039 -12 -12v-8c0 -6.59961 5.40039 -12 12 -12h168c6.59961 0 12 5.40039 12 12zM288 212c0 6.59961 -5.40039 12 -12 12h-168
c-6.59961 0 -12 -5.40039 -12 -12v-8c0 -6.59961 5.40039 -12 12 -12h168c6.59961 0 12 5.40039 12 12v8zM384 326.1v-6.09961h-128v128h6.09961c6.40039 0 12.5 -2.5 17 -7l97.9004 -98c4.5 -4.5 7 -10.5996 7 -16.9004z" />
    <glyph glyph-name="thumbs-up" unicode="&#xf164;" 
d="M104 224c13.2549 0 24 -10.7451 24 -24v-240c0 -13.2549 -10.7451 -24 -24 -24h-80c-13.2549 0 -24 10.7451 -24 24v240c0 13.2549 10.7451 24 24 24h80zM64 -24c13.2549 0 24 10.7451 24 24s-10.7451 24 -24 24s-24 -10.7451 -24 -24s10.7451 -24 24 -24zM384 366.548
c0 -42.416 -25.9697 -66.208 -33.2773 -94.5479h101.724c33.3965 0 59.3965 -27.7461 59.5527 -58.0977c0.0839844 -17.9385 -7.5459 -37.249 -19.4395 -49.1973l-0.109375 -0.110352c9.83594 -23.3369 8.23633 -56.0371 -9.30859 -79.4688
c8.68164 -25.8945 -0.0683594 -57.7041 -16.3818 -74.7568c4.29785 -17.5977 2.24414 -32.5752 -6.14746 -44.6318c-20.4102 -29.3242 -70.9961 -29.7373 -113.773 -29.7373l-2.84473 0.000976562c-48.2871 0.0166016 -87.8057 17.5977 -119.561 31.7246
c-15.957 7.09961 -36.8203 15.8877 -52.6504 16.1787c-6.54004 0.120117 -11.7832 5.45703 -11.7832 11.998v213.77c0 3.2002 1.28223 6.27148 3.55762 8.52148c39.6143 39.1436 56.6484 80.5869 89.1172 113.11c14.8037 14.832 20.1885 37.2363 25.3936 58.9023
c4.44629 18.501 13.749 57.7939 33.9316 57.7939c24 0 72 -8 72 -81.4521z" />
    <glyph glyph-name="thumbs-down" unicode="&#xf165;" 
d="M0 392c0 13.2549 10.7451 24 24 24h80c13.2549 0 24 -10.7451 24 -24v-240c0 -13.2549 -10.7451 -24 -24 -24h-80c-13.2549 0 -24 10.7451 -24 24v240zM40 192c0 -13.2549 10.7451 -24 24 -24s24 10.7451 24 24s-10.7451 24 -24 24s-24 -10.7451 -24 -24zM312 -64
c-20.1826 0 -29.4854 39.293 -33.9307 57.7949c-5.20605 21.666 -10.5889 44.0703 -25.3936 58.9023c-32.4688 32.5234 -49.5029 73.9668 -89.1172 113.11c-2.19727 2.17285 -3.55762 5.19043 -3.55762 8.52148v213.77c0 6.54102 5.24316 11.8779 11.7832 11.998
c15.8311 0.290039 36.6934 9.0791 52.6504 16.1787c31.7549 14.127 71.2744 31.708 119.561 31.7246h2.84375c42.7773 0 93.3633 -0.413086 113.774 -29.7373c8.3916 -12.0566 10.4453 -27.0342 6.14746 -44.6318c16.3125 -17.0527 25.0635 -48.8633 16.3818 -74.7568
c17.5439 -23.4316 19.1436 -56.1318 9.30859 -79.4688l0.109375 -0.110352c11.8936 -11.9492 19.5234 -31.2588 19.4395 -49.1973c-0.15625 -30.3516 -26.1572 -58.0977 -59.5527 -58.0977h-101.725c7.30762 -28.3398 33.2773 -52.1318 33.2773 -94.5479
c0 -73.4521 -48 -81.4521 -72 -81.4521z" />
    <glyph glyph-name="wheelchair" unicode="&#xf193;" 
d="M496.101 62.3311l14.2275 -28.6631c3.92871 -7.91504 0.697266 -17.5156 -7.21777 -21.4453l-65.4658 -32.8857c-16.0488 -7.9668 -35.5557 -1.19434 -43.1885 15.0547l-62.7773 133.608h-139.679c-15.9248 0 -29.4258 11.71 -31.6787 27.4746
c-33.8887 237.218 -31.9414 222.481 -32.3213 228.525c0 36.3584 30.3184 65.6348 67.0518 63.9287c33.2715 -1.54492 60.0479 -28.9043 60.9248 -62.2012c0.868164 -32.9326 -23.1514 -60.4229 -54.6074 -65.0381l4.66992 -32.6904h129.961c8.83691 0 16 -7.16309 16 -16
v-32c0 -8.83691 -7.16309 -16 -16 -16h-120.818l4.57227 -32h132.246c12.8076 0 23.8506 -7.5127 28.9619 -18.3916l57.5146 -122.407l36.1787 18.3486c7.91504 3.92871 17.5166 0.697266 21.4453 -7.21777zM311.358 96l25.752 -54.8076
c-27.3047 -61.8848 -89.2402 -105.192 -161.11 -105.192c-97.0469 0 -176 78.9531 -176 176c0 74.0371 45.9561 137.536 110.836 163.489c2.64453 -18.4736 5.77637 -40.3682 9.48828 -66.333c-33.6299 -19.3477 -56.3242 -55.6514 -56.3242 -97.1562
c0 -61.7568 50.2432 -112 112 -112c56.3242 0 103.064 41.7959 110.852 96h24.5068z" />
    <glyph glyph-name="space-shuttle" unicode="&#xf197;" horiz-adv-x="640" 
d="M592.604 239.756c29.6787 -13.9111 47.3965 -31.7637 47.3965 -47.7559s-17.7178 -33.8447 -47.3965 -47.7559c-32.8682 -15.4082 -76.8262 -24.2441 -120.604 -24.2441h-285.674c-4.95215 -6.55469 -10.585 -11.9775 -16.7197 -16h206.394
c-146.843 -30.2529 -156.597 -136 -279.997 -136h-0.00292969v128h-16v-128c-26.5098 0 -48 28.6543 -48 64v64c-23.1807 0 -32 10.0166 -32 24v40c0 13.9678 8.80273 24 32 24v16c-23.1807 0 -32 10.0166 -32 24v40c0 13.9678 8.80273 24 32 24v64
c0 35.3457 21.4902 64 48 64v-128h16v128h0.00292969c123.4 0 133.154 -105.747 279.997 -136h-206.393c6.13477 -4.02246 11.7676 -9.44531 16.7197 -16h285.673c43.7773 0 87.7354 -8.83594 120.604 -24.2441zM488 152c31.9424 0 31.9092 80 0 80
c-4.41504 0 -8 -3.58496 -8 -8v-64c0 -4.41504 3.58496 -8 8 -8z" />
    <glyph glyph-name="language" unicode="&#xf1ab;" horiz-adv-x="640" 
d="M152.1 211.8l10.9004 -37.5h-38.0996l11.0996 37.5c3.5 12.1006 7.7998 33.2002 7.7998 33.2002h0.5s4.2998 -21.0996 7.7998 -33.2002zM616 352c13.2998 0 24 -10.7002 24 -24v-272c0 -13.2998 -10.7002 -24 -24 -24h-280v320h280zM592 232v16
c0 6.59961 -5.40039 12 -12 12h-64v16c0 6.59961 -5.40039 12 -12 12h-16c-6.59961 0 -12 -5.40039 -12 -12v-16h-64c-6.59961 0 -12 -5.40039 -12 -12v-16c0 -6.59961 5.40039 -12 12 -12h114.3c-6.2002 -14.2998 -16.5 -29 -30 -43.2002
c-6.59961 6.90039 -12.3994 13.9004 -17.3994 20.9004c-3.60059 5.09961 -10.6006 6.59961 -16 3.39941l-7.30078 -4.2998l-6.5 -3.89941c-5.89941 -3.5 -7.69922 -11.4004 -3.69922 -17.1006c6.09961 -8.7002 13.0996 -17.2998 21 -25.7002
c-8.10059 -6.2998 -16.8008 -12.2998 -26.1006 -18c-5.59961 -3.39941 -7.39941 -10.5996 -4.2002 -16.1992l7.90039 -13.9004c3.40039 -5.90039 10.9004 -7.7998 16.7002 -4.2998c12.7002 7.7998 24.5 16.2002 35.3994 24.8994
c10.9004 -8.7998 22.8008 -17.0996 35.4004 -24.8994c5.7998 -3.5 13.2998 -1.60059 16.7002 4.2998l7.89941 13.9004c3.2002 5.69922 1.40039 12.7998 -4.09961 16.1992c-9 5.5 -17.7002 11.6006 -26.0996 18c21 22.5 35.7998 46.3008 42.6992 69.9004h11.4004
c6.59961 0 12 5.40039 12 12zM0 328c0 13.2998 10.7002 24 24 24h280v-320h-280c-13.2998 0 -24 10.7002 -24 24v272zM58.9004 111.9c-2.60059 -7.80078 3.19922 -15.9004 11.3994 -15.9004h22.9004c5.2998 0 10 3.59961 11.5 8.7002l9.09961 31.7998h60.2002
l9.40039 -31.9004c1.4668 -4.96582 6.06152 -8.5957 11.5 -8.59961h22.8994c8.2998 0 14 8.09961 11.4004 15.9004l-57.5 169.1c-1.7002 4.7998 -6.2998 8.09961 -11.4004 8.09961h-32.5c-5.2002 0 -9.7002 -3.19922 -11.3994 -8.09961z" />
    <glyph glyph-name="file-pdf" unicode="&#xf1c1;" horiz-adv-x="384" 
d="M181.9 191.9c-5 16 -4.90039 46.8994 -2 46.8994c8.39941 0 7.59961 -36.8994 2 -46.8994zM180.2 144.7c9.59961 -17.4004 21.7998 -31.2002 34.5 -40.7998c-23.9004 -4.7002 -44.6006 -14.9004 -62.9004 -21.9004c11.1006 19.4004 20.7002 42.5 28.4004 62.7002z
M86.0996 19.9004c5.80078 15.6992 28.2002 33.8994 34.9004 40.1992c-21.7002 -34.7998 -34.9004 -41 -34.9004 -40.1992zM248 288h136v-328c0 -13.2998 -10.7002 -24 -24 -24h-336c-13.2998 0 -24 10.7002 -24 24v464c0 13.2998 10.7002 24 24 24h200v-136
c0 -13.2002 10.7998 -24 24 -24zM240 116.2c-20 12.2002 -33.2998 29 -42.7002 53.7998c4.5 18.5 11.6006 46.5996 6.2002 64.2002c-4.7002 29.3994 -42.4004 26.5 -47.7998 6.7998c-5 -18.2998 -0.400391 -44.0996 8.09961 -77
c-11.5996 -27.5996 -28.7002 -64.5996 -40.7998 -85.7998c-0.0996094 0 -0.0996094 -0.100586 -0.200195 -0.100586c-27.0996 -13.8994 -73.5996 -44.5 -54.5 -68c5.60059 -6.89941 16 -10 21.5 -10c17.9004 0 35.7002 18 61.1006 61.8008
c25.7998 8.5 54.0996 19.0996 79 23.1992c21.6992 -11.7998 47.0996 -19.5 64 -19.5c29.1992 0 31.1992 32 19.6992 43.4004c-13.8994 13.5996 -54.2998 9.7002 -73.5996 7.2002zM377 343c4.5 -4.5 7 -10.5996 7 -16.9004v-6.09961h-128v128h6c6.40039 0 12.5 -2.5 17 -7z
M302.9 87.7002c0 0 -5.7002 -6.7998 -42.8008 9c40.3008 2.89941 46.9004 -6.2998 42.8008 -9z" />
    <glyph glyph-name="file-word" unicode="&#xf1c2;" horiz-adv-x="384" 
d="M224 312c0 -13.2002 10.7998 -24 24 -24h136v-328c0 -13.2998 -10.7002 -24 -24 -24h-336c-13.2998 0 -24 10.7002 -24 24v464c0 13.2998 10.7002 24 24 24h200v-136zM281.1 192c-5.59961 0 -10.5 -3.90039 -11.5 -9.5c-24.1992 -111.4 -21.7998 -118 -21.5996 -129.2
c-0.799805 5.40039 -5.59961 29 -29.5996 129.4c-1.30078 5.39941 -6.10059 9.2002 -11.7002 9.2002h-29.1006c-5.59961 0 -10.3994 -3.7002 -11.6992 -9.10059c-22.1006 -90 -27.8008 -112.5 -29.4004 -122.7c-0.900391 12.7002 -5.40039 44.2002 -21 122.2
c-1.09961 5.7002 -6.09961 9.7002 -11.7998 9.7002h-24.5c-7.7002 0 -13.4004 -7.09961 -11.7002 -14.5996l37.7998 -168c1.2002 -5.5 6.10059 -9.40039 11.7002 -9.40039h37.0996c5.5 0 10.3008 3.7998 11.6006 9.09961c23.2002 93.1006 24.5 96.2002 25.5996 110.5h0.5
c4.7998 -29.2998 -0.200195 -7 25.6006 -110.5c1.2998 -5.2998 6.09961 -9.09961 11.5996 -9.09961h38c5.59961 0 10.5 3.7998 11.7002 9.2998l38 168c1.7002 7.60059 -4 14.7002 -11.7002 14.7002h-23.9004zM384 326.1v-6.09961h-128v128h6.09961
c6.40039 0 12.5 -2.5 17 -7l97.9004 -98c4.5 -4.5 7 -10.5996 7 -16.9004z" />
    <glyph glyph-name="file-excel" unicode="&#xf1c3;" horiz-adv-x="384" 
d="M224 312c0 -13.2002 10.7998 -24 24 -24h136v-328c0 -13.2998 -10.7002 -24 -24 -24h-336c-13.2998 0 -24 10.7002 -24 24v464c0 13.2998 10.7002 24 24 24h200v-136zM284.1 205.5c5.10059 8 -0.599609 18.5 -10.0996 18.4004h-34.7998
c-4.40039 0 -8.5 -2.40039 -10.6006 -6.30078c-30.5 -56.7998 -36.5996 -68.5 -36.5996 -68.5c-16.5996 34.9004 -10.5 19.7002 -36.5996 68.5c-2.10059 3.90039 -6.2002 6.30078 -10.6006 6.30078h-34.7998c-9.5 0 -15.2998 -10.5 -10.0996 -18.5l60.2998 -93.5
l-60.2998 -93.5c-5.10059 -8 0.599609 -18.5 10.0996 -18.5h34.9004c4.39941 0 8.39941 2.39941 10.5 6.2998c26.5996 48.7998 30.1992 54 36.5996 68.7998c0 0 16.9004 -32.5 36.5 -68.7002c2.09961 -3.89941 6.2002 -6.2998 10.5996 -6.2998h34.9004
c9.5 0 15.2002 10.5 10.0996 18.5l-60.0996 93.5zM384 326.1v-6.09961h-128v128h6.09961c6.40039 0 12.5 -2.5 17 -7l97.9004 -98c4.5 -4.5 7 -10.5996 7 -16.9004z" />
    <glyph glyph-name="file-powerpoint" unicode="&#xf1c4;" horiz-adv-x="384" 
d="M193.7 176.8c8.7998 0 15.5 -2.7002 20.2998 -8.09961c9.59961 -10.9004 9.7998 -32.7002 -0.200195 -44.1006c-4.89941 -5.59961 -11.8994 -8.5 -21.0996 -8.5h-26.9004v60.7002h27.9004zM377 343c4.5 -4.5 7 -10.5996 7 -16.9004v-6.09961h-128v128h6
c6.40039 0 12.5 -2.5 17 -7zM224 312c0 -13.2002 10.7998 -24 24 -24h136v-328c0 -13.2998 -10.7002 -24 -24 -24h-336c-13.2998 0 -24 10.7002 -24 24v464c0 13.2998 10.7002 24 24 24h200v-136zM277 146.8c0 44.2002 -28.4004 77 -72.9004 77h-81
c-6.59961 0 -12 -5.39941 -12 -12v-199.8c0 -6.59961 5.40039 -12 12 -12h30.8008c6.59961 0 12 5.40039 12 12v57.2002c22.2998 0 111.1 -12.7002 111.1 77.5996z" />
    <glyph glyph-name="file-image" unicode="&#xf1c5;" horiz-adv-x="384" 
d="M384 326.059v-6.05859h-128v128h6.05859c6.62305 0 12.626 -2.68457 16.9707 -7.0293l97.9404 -97.9404c4.34473 -4.34473 7.03027 -10.3477 7.03027 -16.9717zM248 288h136v-328c0 -13.2549 -10.7451 -24 -24 -24h-336c-13.2549 0 -24 10.7451 -24 24v464
c0 13.2549 10.7451 24 24 24h200v-136c0 -13.2002 10.7998 -24 24 -24zM112.545 272c-26.5088 0 -48 -21.4902 -48 -48s21.4902 -48 48 -48s48 21.4902 48 48s-21.4902 48 -48 48zM320.545 32v112l-39.5137 39.5146c-4.6875 4.68652 -12.2852 4.68652 -16.9717 0
l-103.515 -103.515l-39.5146 39.5146c-4.68652 4.68652 -11.7988 5.1709 -16.4854 0.485352l-39.5146 -39.5146l-0.485352 -48.4854h256z" />
    <glyph glyph-name="file-archive" unicode="&#xf1c6;" horiz-adv-x="384" 
d="M377 343c4.5 -4.5 7 -10.5996 7 -16.9004v-6.09961h-128v128h6.09961c6.40039 0 12.5 -2.5 17 -7zM128.4 112c17.8994 0 32.5 -12.0996 32.5 -27s-14.5 -27 -32.4004 -27s-32.5 12 -32.5 27c0 14.9004 14.5 27 32.4004 27zM224 312c0 -13.2002 10.7998 -24 24 -24h136
v-328c0 -13.2998 -10.7002 -24 -24 -24h-336c-13.2998 0 -24 10.7002 -24 24v464c0 13.2998 10.7002 24 24 24h104.4v-32h32v32h63.5996v-136zM95.9004 416v-32h32v32h-32zM128.2 32c33 0 57.7998 30.2002 51.3994 62.5996l-17.2998 87.7002
c-1.09961 5.60059 -6.09961 9.7002 -11.7998 9.7002h-22.0996v32h32v32h-32v32h32v32h-32v32h32v32h-32v-32h-32v-32h32v-32h-32v-32h32v-32h-32v-32l-19.6006 -97.0996c-6.59961 -32.5 18.2002 -62.9004 51.4004 -62.9004z" />
    <glyph glyph-name="file-audio" unicode="&#xf1c7;" horiz-adv-x="384" 
d="M224 312c0 -13.2002 10.7998 -24 24 -24h136v-328c0 -13.2998 -10.7002 -24 -24 -24h-336c-13.2998 0 -24 10.7002 -24 24v464c0 13.2998 10.7002 24 24 24h200v-136zM160 44v136c0 10.7002 -12.9004 16.0996 -20.5 8.5l-35.5 -36.5h-28c-6.59961 0 -12 -5.40039 -12 -12
v-56c0 -6.59961 5.40039 -12 12 -12h28l35.5 -36.5c7.59961 -7.5 20.5 -2.2002 20.5 8.5zM193.2 91.5996c-22.5 -23.0996 12.5996 -55.7998 34.3994 -33.5c27.2002 28 27.2002 72.5 0 100.4c-22.1992 22.7002 -56.5 -10.7002 -34.3994 -33.5
c9.09961 -9.2998 9.09961 -24.0996 0 -33.4004zM279.2 208.7c-22.1006 22.7998 -56.5 -10.7002 -34.4004 -33.5c36.2998 -37.2998 36.2002 -96.6006 0 -133.8c-22.5996 -23.2002 12.6006 -55.9004 34.4004 -33.5c54.3994 56 54.3994 144.899 0 200.8zM384 326.1v-6.09961
h-128v128h6.09961c6.40039 0 12.5 -2.5 17 -7l97.9004 -98c4.5 -4.5 7 -10.5996 7 -16.9004z" />
    <glyph glyph-name="file-video" unicode="&#xf1c8;" horiz-adv-x="384" 
d="M384 326.059v-6.05859h-128v128h6.05859c6.36523 0 12.4707 -2.5293 16.9717 -7.0293l97.9404 -97.9404c4.34375 -4.34473 7.0293 -10.3486 7.0293 -16.9717zM224 312c0 -13.2002 10.7998 -24 24 -24h136v-328c0 -13.2549 -10.7451 -24 -24 -24h-336
c-13.2549 0 -24 10.7451 -24 24v464c0 13.2549 10.7451 24 24 24h200v-136zM320 167.984c0 21.4609 -25.96 31.9795 -40.9707 16.9697l-55.0293 -55.0127v38.0586c0 13.2549 -10.7451 24 -24 24h-112c-13.2549 0 -24 -10.7451 -24 -24v-112c0 -13.2549 10.7451 -24 24 -24
h112c13.2549 0 24 10.7451 24 24v38.0586l55.0293 -55.0088c15.0273 -15.0264 40.9707 -4.47363 40.9707 16.9717v111.963z" />
    <glyph glyph-name="file-code" unicode="&#xf1c9;" horiz-adv-x="384" 
d="M384 326.059v-6.05859h-128v128h6.05859c6.36523 0 12.4707 -2.5293 16.9717 -7.0293l97.9404 -97.9404c4.34375 -4.34473 7.0293 -10.3486 7.0293 -16.9717zM248 288h136v-328c0 -13.2549 -10.7451 -24 -24 -24h-336c-13.2549 0 -24 10.7451 -24 24v464
c0 13.2549 10.7451 24 24 24h200v-136c0 -13.2002 10.7998 -24 24 -24zM123.206 47.4951l19.5791 20.8838c0.905273 0.96582 1.46289 2.26562 1.46289 3.69238c0 1.61426 -0.709961 3.06445 -1.83496 4.05469l-40.7627 35.874l40.7627 35.874
c1.125 0.990234 1.83203 2.44043 1.83203 4.05566c0 1.42676 -0.554688 2.72559 -1.45996 3.69141l-19.5791 20.8848c-0.985352 1.05176 -2.3877 1.70703 -3.94141 1.70703c-1.42676 0 -2.72559 -0.555664 -3.69141 -1.46094l-64.8662 -60.8115
c-1.05078 -0.986328 -1.70801 -2.38672 -1.70801 -3.93945c0 -1.55371 0.657227 -2.9541 1.70801 -3.94043l64.8662 -60.8115c0.96582 -0.905273 2.26562 -1.46289 3.69336 -1.46289c1.55273 0 2.9541 0.657227 3.93945 1.70898zM174.501 -2.98438
c0.478516 -0.138672 0.982422 -0.212891 1.50488 -0.212891c2.45801 0 4.53418 1.64551 5.18555 3.89453l61.4395 211.626c0.138672 0.478516 0.213867 0.982422 0.213867 1.50488c0 2.45801 -1.64551 4.53418 -3.89355 5.18652l-27.4521 7.9707
c-0.477539 0.138672 -0.981445 0.212891 -1.50391 0.212891c-2.45801 0 -4.53516 -1.64551 -5.18848 -3.89453l-61.4395 -211.626c-0.138672 -0.477539 -0.212891 -0.981445 -0.212891 -1.50293c0 -2.45898 1.64551 -4.53516 3.89355 -5.18848zM335.293 108.061
c1.05176 0.986328 1.70898 2.38672 1.70898 3.94043c0 1.55273 -0.657227 2.95312 -1.70801 3.93945l-64.8662 60.8115c-0.96582 0.905273 -2.26562 1.46289 -3.69336 1.46289c-1.55273 0 -2.9541 -0.657227 -3.93945 -1.70898l-19.5801 -20.8848
c-0.905273 -0.96582 -1.46289 -2.26562 -1.46289 -3.69238c0 -1.61426 0.709961 -3.06445 1.83496 -4.05469l40.7627 -35.874l-40.7637 -35.873c-1.125 -0.990234 -1.83203 -2.44043 -1.83203 -4.05566c0 -1.42676 0.554688 -2.72559 1.45996 -3.69141l19.5801 -20.8848
c0.985352 -1.05176 2.3877 -1.70703 3.94141 -1.70703c1.42676 0 2.72559 0.555664 3.69141 1.46094z" />
    <glyph glyph-name="circle-notch" unicode="&#xf1ce;" 
d="M288 408.944c0 15.5996 14.6777 27.167 29.7891 23.292c107.071 -27.457 186.211 -124.604 186.211 -240.236c0 -136.788 -110.745 -247.711 -247.466 -247.999c-137.054 -0.289062 -247.812 109.615 -248.531 246.667c-0.609375 116.126 78.5996 213.85 185.951 241.502
c15.2119 3.91895 30.0459 -7.52539 30.0459 -23.2344v-16.6475c0 -10.8047 -7.28125 -20.1621 -17.6885 -23.0693c-77.5254 -21.6543 -134.312 -92.749 -134.312 -177.219c0 -101.705 82.3105 -184 184 -184c101.705 0 184 82.3105 184 184
c0 84.4824 -56.7959 155.566 -134.314 177.219c-10.4043 2.90723 -17.6855 12.2627 -17.6855 23.0664v16.6592z" />
    <glyph glyph-name="heading" unicode="&#xf1dc;" 
d="M448 352v-320h32c8.83105 0 16 -7.16895 16 -16v-32c0 -8.83105 -7.16895 -16 -16 -16h-160c-8.83105 0 -16 7.16895 -16 16v32c0 8.83105 7.16895 16 16 16h32v128h-192v-128h32c8.83105 0 16 -7.16895 16 -16v-32c0 -8.83105 -7.16895 -16 -16 -16h-160
c-8.83105 0 -16 7.16895 -16 16v32c0 8.83105 7.16895 16 16 16h32v320h-32c-8.83105 0 -16 7.16895 -16 16v32c0 8.83105 7.16895 16 16 16h160c8.83105 0 16 -7.16895 16 -16v-32c0 -8.83105 -7.16895 -16 -16 -16h-32v-128h192v128h-32c-8.83105 0 -16 7.16895 -16 16v32
c0 8.83105 7.16895 16 16 16h160c8.83105 0 16 -7.16895 16 -16v-32c0 -8.83105 -7.16895 -16 -16 -16h-32z" />
    <glyph glyph-name="trash" unicode="&#xf1f8;" horiz-adv-x="448" 
d="M432 416c8.83105 0 16 -7.16895 16 -16v-32c0 -8.83105 -7.16895 -16 -16 -16h-416c-8.83105 0 -16 7.16895 -16 16v32c0 8.83105 7.16895 16 16 16h120l9.40039 18.7002c3.85547 7.88574 11.9434 13.2998 21.3066 13.2998h0.0927734h114.3
c0.00585938 0 -0.00195312 0.0234375 0.00390625 0.0234375c9.41113 0 17.5645 -5.42871 21.4961 -13.3232l9.40039 -18.7002h120zM53.2002 -19l-21.2002 339h384l-21.2002 -339c-1.57031 -25.0762 -22.4316 -44.9971 -47.8994 -45h-245.801
c-25.4678 0.00292969 -46.3291 19.9238 -47.8994 45z" />
    <glyph glyph-name="copyright" unicode="&#xf1f9;" 
d="M256 440c136.967 0 248 -111.033 248 -248s-111.033 -248 -248 -248s-248 111.033 -248 248s111.033 248 248 248zM373.134 93.2471c1.78516 2.09473 2.86035 4.82812 2.86035 7.79395c0 2.64355 -0.856445 5.08789 -2.30762 7.07227l-24.5469 33.5713
c-4.44824 6.08691 -13.376 6.61816 -18.5078 1.05371c-0.263672 -0.287109 -26.8467 -28.625 -65.5439 -28.625c-48.7627 0 -74.2773 40.0898 -74.2773 79.6914c0 42.5068 27.8008 76.082 73.916 76.082c35.3516 0 61.6475 -23.666 61.8809 -23.8799
c5.45996 -5.05566 14.1846 -3.97168 18.2334 2.29492l22.3799 34.6553c1.20996 1.87305 1.91895 4.12109 1.91895 6.51465c0 3.125 -1.19727 5.97168 -3.15625 8.1084c-1.45703 1.58887 -36.4658 38.9043 -103.423 38.9043c-81.7578 0 -143.762 -62.0986 -143.762 -143.401
c0 -82.3066 59.792 -145.567 144.484 -145.567c70.0752 0 108.259 43.8643 109.851 45.7314z" />
    <glyph glyph-name="diamond" unicode="&#xf219;" horiz-adv-x="448" 
d="M242.2 439.7l200 -232c7.7998 -9 7.7998 -22.2998 0 -31.2998l-200 -232c-9.60059 -11.1006 -26.7998 -11.1006 -36.4004 0l-200 232c-7.7998 9 -7.7998 22.2998 0 31.2998l200 232c9.60059 11.0996 26.7998 11.0996 36.4004 0z" />
    <glyph glyph-name="sticky-note" unicode="&#xf249;" horiz-adv-x="448" 
d="M312 128c-13.2002 0 -24 -10.7998 -24 -24v-136h-264c-13.2998 0 -24 10.7002 -24 24v400c0 13.2998 10.7002 24 24 24h400c13.2998 0 24 -10.7002 24 -24v-264h-136zM441 73l-98 -98c-4.5 -4.5 -10.5996 -7 -17 -7h-6v128h128v-6.09961
c0 -6.30078 -2.5 -12.4004 -7 -16.9004z" />
    <glyph glyph-name="calendar-plus" unicode="&#xf271;" horiz-adv-x="448" 
d="M436 288h-424c-6.59961 0 -12 5.40039 -12 12v36c0 26.5 21.5 48 48 48h48v52c0 6.59961 5.40039 12 12 12h40c6.59961 0 12 -5.40039 12 -12v-52h128v52c0 6.59961 5.40039 12 12 12h40c6.59961 0 12 -5.40039 12 -12v-52h48c26.5 0 48 -21.5 48 -48v-36
c0 -6.59961 -5.40039 -12 -12 -12zM12 256h424c6.59961 0 12 -5.40039 12 -12v-260c0 -26.5 -21.5 -48 -48 -48h-352c-26.5 0 -48 21.5 -48 48v260c0 6.59961 5.40039 12 12 12zM328 116c0 6.59961 -5.40039 12 -12 12h-60v60c0 6.59961 -5.40039 12 -12 12h-40
c-6.59961 0 -12 -5.40039 -12 -12v-60h-60c-6.59961 0 -12 -5.40039 -12 -12v-40c0 -6.59961 5.40039 -12 12 -12h60v-60c0 -6.59961 5.40039 -12 12 -12h40c6.59961 0 12 5.40039 12 12v60h60c6.59961 0 12 5.40039 12 12v40z" />
    <glyph glyph-name="calendar-minus" unicode="&#xf272;" horiz-adv-x="448" 
d="M436 288h-424c-6.59961 0 -12 5.40039 -12 12v36c0 26.5 21.5 48 48 48h48v52c0 6.59961 5.40039 12 12 12h40c6.59961 0 12 -5.40039 12 -12v-52h128v52c0 6.59961 5.40039 12 12 12h40c6.59961 0 12 -5.40039 12 -12v-52h48c26.5 0 48 -21.5 48 -48v-36
c0 -6.59961 -5.40039 -12 -12 -12zM12 256h424c6.59961 0 12 -5.40039 12 -12v-260c0 -26.5 -21.5 -48 -48 -48h-352c-26.5 0 -48 21.5 -48 48v260c0 6.59961 5.40039 12 12 12zM316 64c6.59961 0 12 5.40039 12 12v40c0 6.59961 -5.40039 12 -12 12h-184
c-6.59961 0 -12 -5.40039 -12 -12v-40c0 -6.59961 5.40039 -12 12 -12h184z" />
    <glyph glyph-name="calendar-times" unicode="&#xf273;" horiz-adv-x="448" 
d="M436 288h-424c-6.59961 0 -12 5.40039 -12 12v36c0 26.5 21.5 48 48 48h48v52c0 6.59961 5.40039 12 12 12h40c6.59961 0 12 -5.40039 12 -12v-52h128v52c0 6.59961 5.40039 12 12 12h40c6.59961 0 12 -5.40039 12 -12v-52h48c26.5 0 48 -21.5 48 -48v-36
c0 -6.59961 -5.40039 -12 -12 -12zM12 256h424c6.59961 0 12 -5.40039 12 -12v-260c0 -26.5 -21.5 -48 -48 -48h-352c-26.5 0 -48 21.5 -48 48v260c0 6.59961 5.40039 12 12 12zM269.3 96l48.1006 48.0996c4.69922 4.7002 4.69922 12.3008 0 17l-28.3008 28.3008
c-4.69922 4.69922 -12.2998 4.69922 -17 0l-48.0996 -48.1006l-48.0996 48.1006c-4.7002 4.69922 -12.3008 4.69922 -17 0l-28.3008 -28.3008c-4.69922 -4.69922 -4.69922 -12.2998 0 -17l48.1006 -48.0996l-48.1006 -48.0996c-4.69922 -4.7002 -4.69922 -12.3008 0 -17
l28.3008 -28.3008c4.69922 -4.69922 12.2998 -4.69922 17 0l48.0996 48.1006l48.0996 -48.1006c4.7002 -4.69922 12.3008 -4.69922 17 0l28.3008 28.3008c4.69922 4.69922 4.69922 12.2998 0 17z" />
    <glyph glyph-name="calendar-check" unicode="&#xf274;" horiz-adv-x="448" 
d="M436 288h-424c-6.62695 0 -12 5.37305 -12 12v36c0 26.5098 21.4902 48 48 48h48v52c0 6.62695 5.37305 12 12 12h40c6.62695 0 12 -5.37305 12 -12v-52h128v52c0 6.62695 5.37305 12 12 12h40c6.62695 0 12 -5.37305 12 -12v-52h48c26.5098 0 48 -21.4902 48 -48v-36
c0 -6.62695 -5.37305 -12 -12 -12zM12 256h424c6.62695 0 12 -5.37305 12 -12v-260c0 -26.5098 -21.4902 -48 -48 -48h-352c-26.5098 0 -48 21.4902 -48 48v260c0 6.62695 5.37305 12 12 12zM345.296 160.053l-28.1689 28.3984
c-4.66699 4.70508 -12.2646 4.73535 -16.9697 0.0673828l-106.037 -105.184l-45.9805 46.3516c-4.66699 4.70508 -12.2656 4.73633 -16.9707 0.0683594l-28.3965 -28.1699c-4.70508 -4.66699 -4.73633 -12.2646 -0.0683594 -16.9697l82.6006 -83.2695
c4.66699 -4.70508 12.2656 -4.73535 16.9707 -0.0673828l142.952 141.805c4.70508 4.66699 4.73633 12.2646 0.0683594 16.9697z" />
    <glyph glyph-name="universal-access" unicode="&#xf29a;" 
d="M256 400c-114.971 0 -208 -93.0469 -208 -208c0 -114.971 93.0469 -208 208 -208c114.971 0 208 93.0469 208 208c0 114.971 -93.0469 208 -208 208zM256 440c136.967 0 248 -111.033 248 -248s-111.033 -248 -248 -248s-248 111.033 -248 248s111.033 248 248 248z
M256 384c106.039 0 192 -85.9609 192 -192s-85.9609 -192 -192 -192s-192 85.9609 -192 192s85.9609 192 192 192zM256 340c-19.8818 0 -36 -16.1182 -36 -36s16.1182 -36 36 -36s36 16.1182 36 36s-16.1182 36 -36 36zM373.741 241.977
c8.59961 2.03027 13.9258 10.6484 11.8965 19.249c-2.03027 8.60156 -10.6494 13.9258 -19.249 11.8955c-96.4912 -22.7832 -124.089 -22.8291 -220.774 0c-8.60254 2.03125 -17.2178 -3.29395 -19.249 -11.8955c-2.03125 -8.60059 3.29492 -17.2178 11.8945 -19.249
c28.7129 -6.7793 55.5127 -12.749 82.1416 -15.8066c-0.852539 -101.08 -12.3242 -123.08 -25.0371 -155.621c-3.61719 -9.25879 0.957031 -19.6982 10.2168 -23.3145c9.26465 -3.61914 19.7002 0.961914 23.3154 10.2168c8.72754 22.3408 17.0947 40.6982 22.2617 78.5488
h9.68555c5.1748 -37.9131 13.5566 -56.2412 22.2617 -78.5488c3.61621 -9.25977 14.0547 -13.834 23.3154 -10.2168c9.25977 3.61621 13.834 14.0547 10.2168 23.3145c-12.7305 32.5693 -24.1855 54.5986 -25.0371 155.621c26.6299 3.05859 53.4287 9.02832 82.1406 15.8066
z" />
    <glyph glyph-name="audio-description" unicode="&#xf29e;" 
d="M162.925 209.291l8.82227 -30.6553h-25.6064l9.04102 30.6523c1.27734 4.4209 2.65137 9.99414 3.87207 15.2451c1.2207 -5.25098 2.59473 -10.8232 3.87109 -15.2422zM329.399 241.39c28.6846 0 46.1748 -16.7656 46.1748 -49.0049
c0 -32.0977 -16.3994 -49.7754 -46.1748 -49.7754h-14.5234v98.7803h14.5234zM512 336v-288c0 -26.5098 -21.4902 -48 -48 -48h-416c-26.5098 0 -48 21.4902 -48 48v288c0 26.5098 21.4902 48 48 48h416c26.5098 0 48 -21.4902 48 -48zM245.459 111.861l-57.0967 168
c-1.6084 4.73242 -6.08887 8.13867 -11.3623 8.13867h-35.8936c-5.27344 0 -9.75391 -3.40625 -11.3623 -8.13867l-57.0967 -168c-2.64453 -7.7832 3.1416 -15.8613 11.3613 -15.8613h29.1328c5.47559 0 10.0977 3.67676 11.5352 8.69336l8.57422 29.9053h51.3672
l8.79297 -29.9766c1.46094 -4.97949 6.06543 -8.62207 11.5146 -8.62207h29.1719c8.2207 0 14.0059 8.07812 11.3613 15.8613zM430.16 192.386c0 58.9775 -37.9189 95.6143 -98.96 95.6143h-57.3662c-6.62695 0 -12 -5.37305 -12 -12v-168c0 -6.62695 5.37305 -12 12 -12
h57.3662c61.041 0 98.96 36.9326 98.96 96.3857z" />
    <glyph glyph-name="sign-language" unicode="&#xf2a7;" horiz-adv-x="448" 
d="M91.4336 -35.9873c-0.306641 16.0186 13.1094 29.1289 29.1309 29.1289h62.293v5.71484h-125.864c-16.0215 0 -29.4375 13.1104 -29.1299 29.1289c0.296875 15.5234 12.9717 28.0146 28.5645 28.0146h126.43v5.71387h-153.722
c-16.0205 0 -29.4365 13.1113 -29.1299 29.1289c0.296875 15.5225 12.9727 28.0137 28.5664 28.0137h154.286v5.71387h-125.151c-16.0215 0 -29.4375 13.1104 -29.1299 29.1289c0.296875 15.5215 12.9727 28.0127 28.5654 28.0127h168.566l-31.085 22.6064
c-12.7617 9.28027 -15.583 27.1484 -6.30176 39.9121c9.28027 12.7607 27.1494 15.5811 39.9121 6.30176l123.36 -89.7148c8.57324 -6.23535 14.1201 -16.3271 14.1201 -27.7285v-141.136c0 -15.9102 -10.9463 -29.7305 -26.4326 -33.374l-80.4717 -18.9346
c-10.1113 -2.37891 -20.5771 -3.64551 -31.4102 -3.64551h-107.4c-15.5928 0.000976562 -28.2686 12.4922 -28.5664 28.0137zM164.683 189.714l-36.3711 46.71c-9.5791 12.3027 -7.51172 29.9795 4.55371 39.75c12.4502 10.083 31.0371 7.55273 40.8799 -5.08789
l13.0039 -16.7002c-17.1426 -15.6484 -15.4092 -43.0244 3.16992 -56.5361l11.1875 -8.13574h-36.4238zM447.981 191.817c0.0117188 -0.379883 0.0439453 -0.729492 0.0439453 -1.1123c0 -10.9961 -5.1875 -20.7891 -13.2461 -27.0654l-61.0645 -47.5488v16.999
c0 13.4834 -6.51074 26.2686 -17.415 34.1982l-123.359 89.7139c-12.6357 9.18945 -29.1934 9.16113 -41.6904 0.904297l-52.0527 66.8486c-9.84375 12.6416 -7.74121 31.2822 5.08594 40.8809c12.4297 9.30273 30.0732 6.97559 39.6523 -5.32812l77.6758 -99.7539
l4.50879 3.51172l-94.4434 121.287c-9.84277 12.6416 -7.74121 31.2822 5.08594 40.8818c12.4307 9.30176 30.0732 6.97461 39.6533 -5.32812l94.79 -121.734l4.50879 3.51074l-76.8887 98.7451c-9.84277 12.6416 -7.74121 31.2822 5.08594 40.8809
c12.4297 9.30273 30.0732 6.97559 39.6533 -5.32715l103.562 -133.001l-1.26172 38.4141c-0.518555 15.7715 11.8457 28.9756 27.6191 29.4932c15.7705 0.517578 28.9746 -11.8477 29.4922 -27.6191z" />
    <glyph glyph-name="envelope-open" unicode="&#xf2b6;" 
d="M512 -16c0 -26.5098 -21.4902 -48 -48 -48h-416c-26.5098 0 -48 21.4902 -48 48v263.276c0 15.3379 7.17383 28.9863 18.3867 37.7754c24.9131 19.5293 45.501 35.3652 164.2 121.512c16.8252 12.2666 50.21 41.7832 73.4131 41.4336
c23.1982 0.353516 56.5957 -29.1719 73.4131 -41.4326c118.687 -86.1377 139.303 -101.995 164.2 -121.513c11.2129 -8.78906 18.3867 -22.4375 18.3867 -37.7754v-263.276zM446.334 180.605c-2.5625 3.72754 -7.7002 4.59473 -11.3389 1.90625
c-22.8447 -16.873 -55.4619 -40.7051 -105.582 -77.0791c-16.8252 -12.2656 -50.21 -41.7803 -73.4131 -41.4297c-23.2109 -0.34375 -56.5586 29.1436 -73.4131 41.4297c-50.1143 36.3701 -82.7344 60.2041 -105.582 77.0791
c-3.63867 2.68848 -8.77637 1.82129 -11.3389 -1.90625l-9.07227 -13.1963c-0.884766 -1.28711 -1.40332 -2.8457 -1.40332 -4.52539c0 -2.63867 1.26953 -4.98438 3.24219 -6.44141c22.8877 -16.8994 55.4541 -40.6904 105.304 -76.8682
c20.2734 -14.7812 56.5234 -47.8135 92.2637 -47.5732c35.7236 -0.242188 71.9609 32.7715 92.2627 47.5732c49.8506 36.1787 82.418 59.9697 105.304 76.8682c1.97266 1.45703 3.25391 3.79883 3.25391 6.4375c0 1.67969 -0.530273 3.24219 -1.41504 4.5293z" />
    <glyph glyph-name="watch" unicode="&#xf2e1;" horiz-adv-x="384" 
d="M192 368c97.2002 0 176 -78.7998 176 -176s-78.7998 -176 -176 -176s-176 78.7998 -176 176s78.7998 176 176 176zM192 392c-47.5 0 -92.4004 -16.5996 -128 -46.2998v78.2998c0 13.2998 10.7002 24 24 24h208c13.2998 0 24 -10.7002 24 -24v-78.2998
c-35.5996 29.7002 -80.5996 46.2998 -128 46.2998zM192 -8c47.4004 0 92.4004 16.5996 128 46.2998v-78.2998c0 -13.2998 -10.7002 -24 -24 -24h-208c-13.2998 0 -24 10.7002 -24 24v78.2998c35.5996 -29.5996 80.5 -46.2998 128 -46.2998zM245 122.3l18.7998 25.9004
c3.90039 5.39941 2.7002 12.8994 -2.59961 16.7998l-41.2002 30v93c0 6.59961 -5.40039 12 -12 12h-32c-6.59961 0 -12 -5.40039 -12 -12v-115.4c0 -3.7998 1.7998 -7.39941 4.90039 -9.69922l59.2998 -43.2002c5.39941 -4 12.8994 -2.7998 16.7998 2.59961z" />
    <glyph glyph-name="utensil-fork" unicode="&#xf2e3;" 
d="M469.5 328.6c19.4004 15.3008 53 -18.6992 39.2998 -37.3994c-3.09961 -4.40039 -62.7998 -88.6006 -90.3994 -116.2c-41.9004 -42 -94.1006 -49.5996 -139.101 -28.7002l-180.5 -201.2c-10.3994 -11.5996 -28.5 -12.0996 -39.5 -1.09961l-51.2998 51.2998
c-11.0996 11 -10.5996 29 1 39.5l201.1 180.7c-20.8994 45 -13.0996 97.2998 28.7002 139.1c27.6006 27.5 111.8 87.2002 116.2 90.3008c18.7998 13.6992 52.9004 -19.9004 37.5 -39.3008l-113.2 -113.199c-1.7002 -3.80078 9.5 -14.7002 12.9004 -12.9004
c21.3994 19.2002 117.8 105.3 120.1 107.3c19.2998 14.1006 52.5 -19.0996 38.4004 -38.3994c-2 -2.2002 -88.1006 -98.6006 -107.3 -120.101c-1.80078 -3.39941 9.09961 -14.5996 12.8994 -12.8994z" />
    <glyph glyph-name="utensil-knife" unicode="&#xf2e4;" 
d="M424.9 439.3c11.5 11.6006 30.1992 11.6006 41.7998 0c71.7998 -71.7998 37.3994 -348.3 -205.5 -318.6l-148.2 -174.3c-11.2002 -13.2002 -31.2002 -14 -43.4004 -1.80078l-48.7998 48.8008c-11.5 11.5 -11.5 30.2998 0 41.7998z" />
    <glyph glyph-name="utensil-spoon" unicode="&#xf2e5;" 
d="M480.1 416.1c55.1006 -55 34.5 -164.899 -28.5 -227.8c-49.2998 -49.2998 -110 -55.0996 -160.399 -28.7998l-192.4 -214.4c-10.3994 -11.5996 -28.5 -12.0996 -39.5 -1.09961l-51.2998 51.2998c-11.0996 11 -10.5996 29 1 39.5l214.5 192.4
c-26.2998 50.3994 -20.5 111.1 28.7998 160.399c62.9004 63 172.8 83.6006 227.8 28.5z" />
    <glyph glyph-name="triangle" unicode="&#xf2ec;" horiz-adv-x="576" 
d="M329.6 424l240 -416c18.4004 -32 -4.69922 -72 -41.5996 -72h-479.9c-37 0 -60 40.0996 -41.5996 72l239.9 416c18.5 32 64.7998 32 83.1992 0z" />
    <glyph glyph-name="trash-alt" unicode="&#xf2ed;" horiz-adv-x="448" 
d="M32 -16v336h384v-336c0 -26.4922 -21.5078 -48 -48 -48h-288c-26.4922 0 -48 21.5078 -48 48zM304 240v-224c0 -8.83105 7.16895 -16 16 -16s16 7.16895 16 16v224c0 8.83105 -7.16895 16 -16 16s-16 -7.16895 -16 -16zM208 240v-224c0 -8.83105 7.16895 -16 16 -16
s16 7.16895 16 16v224c0 8.83105 -7.16895 16 -16 16s-16 -7.16895 -16 -16zM112 240v-224c0 -8.83105 7.16895 -16 16 -16s16 7.16895 16 16v224c0 8.83105 -7.16895 16 -16 16s-16 -7.16895 -16 -16zM432 416c8.83105 0 16 -7.16895 16 -16v-32
c0 -8.83105 -7.16895 -16 -16 -16h-416c-8.83105 0 -16 7.16895 -16 16v32c0 8.83105 7.16895 16 16 16h120l9.40039 18.7002c3.85547 7.88574 11.9434 13.2998 21.3066 13.2998h0.0927734h114.3c0.00585938 0 -0.00195312 0.0234375 0.00390625 0.0234375
c9.41113 0 17.5645 -5.42871 21.4961 -13.3232l9.40039 -18.7002h120z" />
    <glyph glyph-name="stopwatch" unicode="&#xf2f2;" horiz-adv-x="448" 
d="M432 144c0 -114.9 -93.0996 -208 -208 -208s-208 93.0996 -208 208c0 104 76.2998 190.2 176 205.5v34.5h-28c-6.59961 0 -12 5.40039 -12 12v40c0 6.59961 5.40039 12 12 12h120c6.59961 0 12 -5.40039 12 -12v-40c0 -6.59961 -5.40039 -12 -12 -12h-28v-34.5
c37.5 -5.7998 71.7002 -21.5996 99.7002 -44.5996l27.5 27.5c4.7002 4.69922 12.2998 4.69922 17 0l28.2998 -28.3008c4.7002 -4.69922 4.7002 -12.2998 0 -17l-29.4004 -29.3994l-0.599609 -0.600586c21.2002 -32.3994 33.5 -71.2998 33.5 -113.1zM256 108v151.5
c0 6.59961 -5.40039 12 -12 12h-40c-6.59961 0 -12 -5.40039 -12 -12v-151.5c0 -6.59961 5.40039 -12 12 -12h40c6.59961 0 12 5.40039 12 12z" />
    <glyph glyph-name="spade" unicode="&#xf2f4;" 
d="M272.5 441.4c48.0996 -45.8008 185.9 -178.4 207.7 -202.2c19.7998 -21.9004 32 -50.9004 32 -83.1006c0 -67.5 -53.2002 -122.3 -120.7 -124c-37.7998 -1 -71.9004 15 -95.2998 40.8008c0.200195 -37.5 1.39941 -52.6006 53 -75.6006
c13.5996 -6 21.2002 -20.5996 18.3994 -35.2002c-2.89941 -15.1992 -16.5996 -26 -32.0996 -26h-159.4c-14.8994 0 -27.8994 10.3008 -31.1992 24.8008c-3.5 15 4.59961 30.2998 18.6992 36.5996c51.6006 23.0996 52.3008 38.7998 52.4004 75.4004
c-22.7998 -25.2002 -55.7998 -41 -92.5 -40.9004c-68.5996 0.299805 -123.5 56 -123.5 126.5c0 31.2002 12.7002 59.2998 32 80.5996c21.5996 23.9004 159.4 156.5 207.4 202.301c9.2998 8.7998 23.7998 8.7998 33.0996 0z" />
    <glyph glyph-name="rectangle-landscape" unicode="&#xf2fa;" 
d="M464 0h-416c-26.5 0 -48 21.5 -48 48v288c0 26.5 21.5 48 48 48h416c26.5 0 48 -21.5 48 -48v-288c0 -26.5 -21.5 -48 -48 -48z" />
    <glyph glyph-name="rectangle-portrait" unicode="&#xf2fb;" horiz-adv-x="384" 
d="M0 -16v416c0 26.5 21.5 48 48 48h288c26.5 0 48 -21.5 48 -48v-416c0 -26.5 -21.5 -48 -48 -48h-288c-26.5 0 -48 21.5 -48 48z" />
    <glyph glyph-name="rectangle-wide" unicode="&#xf2fc;" horiz-adv-x="640" 
d="M592 32h-544c-26.5 0 -48 21.5 -48 48v224c0 26.5 21.5 48 48 48h544c26.5 0 48 -21.5 48 -48v-224c0 -26.5 -21.5 -48 -48 -48z" />
    <glyph glyph-name="octagon" unicode="&#xf306;" 
d="M361.5 433.9l136.5 -136.5c9 -9 14.0996 -21.2002 14.0996 -33.9004v-143c0 -12.7002 -5.09961 -24.9004 -14.0996 -33.9004l-136.5 -136.5c-9 -9 -21.2002 -14.0996 -33.9004 -14.0996h-143.1c-12.7002 0 -24.9004 5.09961 -33.9004 14.0996l-136.5 136.5
c-9 9 -14.0996 21.2002 -14.0996 33.9004v143.1c0 12.7002 5.09961 24.9004 14.0996 33.9004l136.5 136.4c9 9 21.2002 14.0996 33.9004 14.0996h143.1c12.7002 0 24.9004 -5.09961 33.9004 -14.0996z" />
    <glyph glyph-name="hexagon" unicode="&#xf312;" horiz-adv-x="576" 
d="M441.5 408.2l112 -192c8.7002 -15 8.7002 -33.5 0 -48.4004l-112 -192c-8.59961 -14.7002 -24.4004 -23.7998 -41.5 -23.7998h-224c-17.0996 0 -32.9004 9.09961 -41.5 23.7998l-112 192c-8.7002 15 -8.7002 33.5 0 48.4004l112 192
c8.59961 14.7002 24.4004 23.7998 41.5 23.7998h224c17.0996 0 32.9004 -9.09961 41.5 -23.7998z" />
    <glyph glyph-name="file-check" unicode="&#xf316;" horiz-adv-x="384" 
d="M384 326.059v-6.05859h-128v128h6.05859c6.36523 0 12.4707 -2.5293 16.9717 -7.0293l97.9404 -97.9404c4.34375 -4.34473 7.0293 -10.3486 7.0293 -16.9717zM248 288h136v-328c0 -13.2549 -10.7451 -24 -24 -24h-336c-13.2549 0 -24 10.7451 -24 24v464
c0 13.2549 10.7451 24 24 24h200v-136c0 -13.2002 10.7998 -24 24 -24zM313.296 178.268l-28.1689 28.3984c-4.66699 4.70508 -12.2646 4.73633 -16.9697 0.0683594l-106.037 -105.185l-45.9805 46.3525c-4.66699 4.70508 -12.2656 4.73535 -16.9707 0.0673828
l-28.3965 -28.1699c-4.70508 -4.66699 -4.73633 -12.2646 -0.0683594 -16.9697l82.6006 -83.2695c4.66699 -4.7041 12.2656 -4.73535 16.9707 -0.0673828l142.952 141.805c4.70508 4.66699 4.73633 12.2656 0.0683594 16.9697z" />
    <glyph glyph-name="file-exclamation" unicode="&#xf31a;" horiz-adv-x="384" 
d="M384 326.1v-6.09961h-128v128h6.09961c6.40039 0 12.5 -2.5 17 -7l97.9004 -98c4.5 -4.5 7 -10.5996 7 -16.9004zM384 288v-328c0 -13.2998 -10.7002 -24 -24 -24h-336c-13.2998 0 -24 10.7002 -24 24v464c0 13.2998 10.7002 24 24 24h200v-136
c0 -13.2002 10.7998 -24 24 -24h136zM152.8 227.2l7.2002 -112c0.400391 -6.2998 5.59961 -11.2002 12 -11.2002h40c6.2998 0 11.5996 4.90039 12 11.2002l7.2002 112c0.399414 6.89941 -5 12.7998 -12 12.7998h-54.4004c-6.89941 0 -12.3994 -5.7998 -12 -12.7998zM232 48
c0 22.0996 -17.9004 40 -40 40s-40 -17.9004 -40 -40s17.9004 -40 40 -40s40 17.9004 40 40z" />
    <glyph glyph-name="file-edit" unicode="&#xf31c;" horiz-adv-x="384" 
d="M384 326.1v-6.09961h-128v128h6.09961c6.40039 0 12.5 -2.5 17 -7l97.9004 -98c4.5 -4.5 7 -10.5996 7 -16.9004zM248 288h136v-328c0 -13.2998 -10.7002 -24 -24 -24h-336c-13.2998 0 -24 10.7002 -24 24v464c0 13.2998 10.7002 24 24 24h200v-136
c0 -13.2002 10.7998 -24 24 -24zM188.4 178.4l-95 -95l-5.40039 -48.2002c-0.700195 -6.40039 4.7002 -11.9004 11.2002 -11.2002l48.2002 5.40039l95 95c2 2 2 5.19922 0 7.19922l-46.8008 46.8008c-2 2 -5.19922 2 -7.19922 0zM298.1 208.7l-25.3994 25.3994
c-7.90039 7.90039 -20.7002 7.90039 -28.6006 0l-26 -26c-2 -2 -2 -5.19922 0 -7.19922l46.8008 -46.8008c2 -2 5.19922 -2 7.19922 0l26 26c7.90039 7.90039 7.90039 20.7002 0 28.6006z" />
    <glyph glyph-name="club" unicode="&#xf327;" 
d="M371.5 278.9c74.7002 9.89941 140.5 -48.1006 140.5 -122.9c0 -68.5 -55.5 -124 -124 -124c-36.5 0 -69.2998 15.7998 -92 40.9004c0.200195 -37.5 1.40039 -52.6006 53 -75.6006c13.7998 -6.2002 21.4004 -21.0996 18.2998 -35.8994
c-3.09961 -14.8008 -16.2002 -25.4004 -31.2998 -25.4004h-160c-15.0996 0 -28.2002 10.5996 -31.2998 25.4004c-3.10059 14.7998 4.5 29.7998 18.2998 35.8994c52.2002 23.2002 52.9004 38.9004 53 75.6006c-22.7002 -25.1006 -55.5 -40.9004 -92 -40.9004
c-68.5 0 -124 55.5 -124 124c0 74.7002 65.7002 132.8 140.5 122.9c-31.5 80.5996 27.7002 169.1 115.5 169.1c87.7002 0 147.1 -88.4004 115.5 -169.1z" />
    <glyph glyph-name="calendar-edit" unicode="&#xf333;" horiz-adv-x="448" 
d="M436 288h-424c-6.59961 0 -12 5.40039 -12 12v36c0 26.5 21.5 48 48 48h48v52c0 6.59961 5.40039 12 12 12h40c6.59961 0 12 -5.40039 12 -12v-52h128v52c0 6.59961 5.40039 12 12 12h40c6.59961 0 12 -5.40039 12 -12v-52h48c26.5 0 48 -21.5 48 -48v-36
c0 -6.59961 -5.40039 -12 -12 -12zM12 256h424c6.59961 0 12 -5.40039 12 -12v-260c0 -26.5 -21.5 -48 -48 -48h-352c-26.5 0 -48 21.5 -48 48v260c0 6.59961 5.40039 12 12 12zM220.4 146.4l-95 -95l-5.40039 -48.2002
c-0.700195 -6.40039 4.7002 -11.9004 11.2002 -11.2002l48.2002 5.40039l95 95c2 2 2 5.19922 0 7.19922l-46.8008 46.8008c-2 2 -5.19922 2 -7.19922 0zM330.1 176.7l-25.3994 25.3994c-7.90039 7.90039 -20.7002 7.90039 -28.6006 0l-26 -26c-2 -2 -2 -5.19922 0 -7.19922
l46.8008 -46.8008c2 -2 5.19922 -2 7.19922 0l26 26c7.90039 7.90039 7.90039 20.7002 0 28.6006z" />
    <glyph glyph-name="calendar-exclamation" unicode="&#xf334;" horiz-adv-x="448" 
d="M0 300v36c0 26.5 21.5 48 48 48h48v52c0 6.59961 5.40039 12 12 12h40c6.59961 0 12 -5.40039 12 -12v-52h128v52c0 6.59961 5.40039 12 12 12h40c6.59961 0 12 -5.40039 12 -12v-52h48c26.5 0 48 -21.5 48 -48v-36c0 -6.59961 -5.40039 -12 -12 -12h-424
c-6.59961 0 -12 5.40039 -12 12zM448 244v-260c0 -26.5 -21.5 -48 -48 -48h-352c-26.5 0 -48 21.5 -48 48v260c0 6.59961 5.40039 12 12 12h424c6.59961 0 12 -5.40039 12 -12zM224 56c-22.0996 0 -40 -17.9004 -40 -40s17.9004 -40 40 -40s40 17.9004 40 40
s-17.9004 40 -40 40zM184.8 195.2l7.2002 -112c0.400391 -6.2998 5.59961 -11.2002 12 -11.2002h40c6.2998 0 11.5996 4.90039 12 11.2002l7.2002 112c0.399414 6.89941 -5 12.7998 -12 12.7998h-54.4004c-6.89941 0 -12.3994 -5.90039 -12 -12.7998z" />
    <glyph glyph-name="badge" unicode="&#xf335;" 
d="M512 192c0 -37.7002 -23.7002 -69.9004 -57.0996 -82.4004c14.6992 -32.3994 8.7998 -71.8994 -17.9004 -98.5996c-26.5996 -26.5996 -66 -32.7002 -98.5996 -17.9004c-12.5 -33.3994 -44.7002 -57.0996 -82.4004 -57.0996s-69.9004 23.7998 -82.4004 57.0996
c-32.5 -14.7998 -72 -8.69922 -98.5996 17.9004c-26.7002 26.5996 -32.5996 66.2002 -17.9004 98.5996c-33.3994 12.5 -57.0996 44.7002 -57.0996 82.4004s23.7002 69.9004 57.0996 82.4004c-14.6992 32.3994 -8.7998 71.8994 17.9004 98.5996
c26.5996 26.7002 66.2002 32.5996 98.5996 17.9004c12.5 33.3994 44.7002 57.0996 82.4004 57.0996s69.9004 -23.7002 82.4004 -57.0996c32.3994 14.6992 71.8994 8.7998 98.5996 -17.9004s32.5996 -66.2002 17.9004 -98.5996
c33.3994 -12.5 57.0996 -44.7002 57.0996 -82.4004z" />
    <glyph glyph-name="spinner-third" unicode="&#xf3f4;" 
d="M456.433 76.2803l-27.79 16.0449c-7.19141 4.15137 -10.0518 13.1357 -6.48633 20.6357c25.8193 54.3281 23.5654 118.603 -6.76855 171.03c-30.2646 52.5283 -84.8018 86.6211 -144.76 91.4238c-8.27832 0.663086 -14.6279 7.63184 -14.6279 15.9355v32.0898
c0 9.30957 7.91602 16.6084 17.2041 15.96c81.7949 -5.71777 156.412 -51.9023 197.611 -123.408c41.3008 -71.3848 43.9893 -159.096 8.04199 -232.792c-4.08203 -8.36914 -14.3613 -11.5752 -22.4248 -6.91992z" />
    <glyph glyph-name="ticket-alt" unicode="&#xf3ff;" horiz-adv-x="576" 
d="M128 288h320v-192h-320v192zM528 192c0 -26.5098 21.4902 -48 48 -48v-96c0 -26.5098 -21.4902 -48 -48 -48h-480c-26.5098 0 -48 21.4902 -48 48v96c26.5098 0 48 21.4902 48 48s-21.4902 48 -48 48v96c0 26.5098 21.4902 48 48 48h480c26.5098 0 48 -21.4902 48 -48
v-96c-26.5098 0 -48 -21.4902 -48 -48zM480 296c0 13.2549 -10.7451 24 -24 24h-336c-13.2549 0 -24 -10.7451 -24 -24v-208c0 -13.2549 10.7451 -24 24 -24h336c13.2549 0 24 10.7451 24 24v208z" />
    <glyph glyph-name="square-full" unicode="&#xf45c;" 
d="M512 -64h-512v512h512v-512z" />
    <glyph glyph-name="whistle" unicode="&#xf460;" horiz-adv-x="640" 
d="M232 192c0 -13.2002 -10.7998 -24 -24 -24s-24 10.7998 -24 24s10.7998 24 24 24s24 -10.7998 24 -24zM484 241.7l150 -120c6.7002 -5.40039 8 -15.2002 2.7998 -22.1006l-78.2002 -104.3c-4.7998 -6.5 -13.6992 -8.2998 -20.6992 -4.2998l-150.4 86
c-75.4004 -113.4 -236.7 -121.8 -326.5 -32c-65.5 65.5 -78.0996 163.8 -38 242c-14.4004 11.7998 -23 29.7002 -23 49c0 35.2998 28.7002 64 64 64c19.2002 0 36.9004 -8.90039 49 -23.5c65.2998 33.5996 144.4 30.7998 207 -9.2998l86.5996 -63.6006
c5.30078 -4.19922 7.30078 -11.2998 5.10059 -17.6992l-10.2002 -29.5c-1.09961 -3.2002 -0.0996094 -6.7002 2.59961 -8.90039l25.2002 -20.2002c2.60059 -2.09961 6.2002 -2.2998 9.10059 -0.599609l27.3994 16.2002c5.7998 3.39941 13 2.89941 18.2002 -1.2002z
M85.5 359.7c-5.7998 5.2998 -13.5 8.2998 -21.5 8.2998c-17.7002 0 -32 -14.2998 -32 -32c0 -8.09961 3.2998 -15.4004 8.40039 -21.2002c15.1992 20.6006 27.2998 31.9004 45.0996 44.9004zM280 192c0 39.7002 -32.2998 72 -72 72s-72 -32.2998 -72 -72s32.2998 -72 72 -72
s72 32.2998 72 72z" />
    <glyph glyph-name="band-aid" unicode="&#xf462;" horiz-adv-x="640" 
d="M0 288c0 35.2998 28.7002 64 64 64h96v-320h-96c-35.2998 0 -64 28.7002 -64 64v192zM576 352c35.2998 0 64 -28.7002 64 -64v-192c0 -35.2998 -28.7002 -64 -64 -64h-96v320h96zM192 32v320h256v-320h-256zM368 264c-13.2998 0 -24 -10.7002 -24 -24s10.7002 -24 24 -24
s24 10.7002 24 24s-10.7002 24 -24 24zM368 168c-13.2998 0 -24 -10.7002 -24 -24s10.7002 -24 24 -24s24 10.7002 24 24s-10.7002 24 -24 24zM272 264c-13.2998 0 -24 -10.7002 -24 -24s10.7002 -24 24 -24s24 10.7002 24 24s-10.7002 24 -24 24zM272 168
c-13.2998 0 -24 -10.7002 -24 -24s10.7002 -24 24 -24s24 10.7002 24 24s-10.7002 24 -24 24z" />
    <glyph glyph-name="file-medical" unicode="&#xf477;" horiz-adv-x="384" 
d="M377 343c4.5 -4.5 7 -10.5996 7 -16.9004v-6.09961h-128v128h6.09961c6.40039 0 12.5 -2.5 17 -7zM224 312c0 -13.2002 10.7998 -24 24 -24h136v-328c0 -13.2998 -10.7002 -24 -24 -24h-336c-13.2998 0 -24 10.7002 -24 24v464c0 13.2998 10.7002 24 24 24h200v-136z
M288 152c0 4.40039 -3.59961 8 -8 8h-56v56c0 4.40039 -3.59961 8 -8 8h-48c-4.40039 0 -8 -3.59961 -8 -8v-56h-56c-4.40039 0 -8 -3.59961 -8 -8v-48c0 -4.40039 3.59961 -8 8 -8h56v-56c0 -4.40039 3.59961 -8 8 -8h48c4.40039 0 8 3.59961 8 8v56h56
c4.40039 0 8 3.59961 8 8v48z" />
    <glyph glyph-name="file-medical-alt" unicode="&#xf478;" horiz-adv-x="448" 
d="M288 312c0 -13.2002 10.7998 -24 24 -24h136v-328c0 -13.2998 -10.7002 -24 -24 -24h-336c-13.2998 0 -24 10.7002 -24 24v168h70.0996l34.8008 -69.5c2.89941 -5.90039 11.3994 -5.90039 14.2998 0l56.7998 113.7l22.0996 -44.2002h89.9004c8.7998 0 16 7.2002 16 16
s-7.2002 16 -16 16h-70.2002l-34.7002 69.5c-2.89941 5.90039 -11.3994 5.90039 -14.2998 0l-56.7998 -113.7l-19.9004 39.7998c-1.39941 2.7002 -4.19922 4.40039 -7.19922 4.40039h-140.9c-4.40039 0 -8 3.59961 -8 8v16c0 4.40039 3.59961 8 8 8h56v232
c0 13.2998 10.7002 24 24 24h200v-136zM441 343c4.5 -4.5 7 -10.5996 7 -16.9004v-6.09961h-128v128h6.09961c6.40039 0 12.5 -2.5 17 -7z" />
    <glyph glyph-name="x-ray" unicode="&#xf497;" horiz-adv-x="640" 
d="M240 64c8.7998 0 16 -7.2002 16 -16s-7.2002 -16 -16 -16s-16 7.2002 -16 16s7.2002 16 16 16zM400 32c-8.7998 0 -16 7.2002 -16 16s7.2002 16 16 16s16 -7.2002 16 -16s-7.2002 -16 -16 -16zM624 448c8.7998 0 16 -7.2002 16 -16v-32c0 -8.7998 -7.2002 -16 -16 -16
h-608c-8.7998 0 -16 7.2002 -16 16v32c0 8.7998 7.2002 16 16 16h608zM624 0c8.7998 0 16 -7.2002 16 -16v-32c0 -8.7998 -7.2002 -16 -16 -16h-608c-8.7998 0 -16 7.2002 -16 16v32c0 8.7998 7.2002 16 16 16h48v352h512v-352h48zM480 200v16c0 4.40039 -3.59961 8 -8 8
h-136v32h104c4.40039 0 8 3.59961 8 8v16c0 4.40039 -3.59961 8 -8 8h-104v24c0 4.40039 -3.59961 8 -8 8h-16c-4.40039 0 -8 -3.59961 -8 -8v-24h-104c-4.40039 0 -8 -3.59961 -8 -8v-16c0 -4.40039 3.59961 -8 8 -8h104v-32h-136c-4.40039 0 -8 -3.59961 -8 -8v-16
c0 -4.40039 3.59961 -8 8 -8h136v-32h-104c-4.40039 0 -8 -3.59961 -8 -8v-16c0 -4.40039 3.59961 -8 8 -8h104v-32h-64c-26.5 0 -48 -21.5 -48 -48s21.5 -48 48 -48s48 21.5 48 48v16h64v-16c0 -26.5 21.5 -48 48 -48s48 21.5 48 48s-21.5 48 -48 48h-64v32h104
c4.40039 0 8 3.59961 8 8v16c0 4.40039 -3.59961 8 -8 8h-104v32h136c4.40039 0 8 3.59961 8 8z" />
    <glyph glyph-name="dove" unicode="&#xf4ba;" 
d="M288 280.8c-50.7998 10.5 -96.5996 36.7998 -130.8 75.1006c11.2002 32.3994 27.7998 61.5996 48.8994 86.5c8.80078 10.5 25.7002 5.19922 27.8008 -8.30078c7 -45.8994 25.8994 -88.8994 54.0996 -125.199v-28.1006zM400 384h112l-32 -64v-160.1
c0 -88.4004 -71.5996 -159.9 -160 -159.9h-76.9004l-65.1992 -56.0996c-6.10059 -5.30078 -14.1006 -8.2002 -22.1006 -7.90039c-92.7998 3.7998 -135.8 49.4004 -153.2 76.2998c-6 9.2998 -1.19922 21.7002 9.5 24.4004l143.9 36
c-12.7998 9.59961 -25.7002 20.0996 -38.9004 32.7998c-51 49 -85.0996 115.1 -85.0996 185.9c0 41.3994 9.40039 80.5996 26 115.699c5.7998 12.3008 23.5 11.6006 29 -0.899414c40 -91.2002 128.6 -155.5 233 -161.7v59.4004c0 44.1992 35.7998 80.0996 80 80.0996z
M400 287.9c8.7998 0 16 7.19922 16 16c0 8.7998 -7.2002 16 -16 16s-16 -7.2002 -16 -16c0 -8.80078 7.2002 -16 16 -16z" />
    <glyph glyph-name="piggy-bank" unicode="&#xf4d3;" horiz-adv-x="576" 
d="M560 224c8.7998 0 16 -7.2002 16 -16v-128c0 -8.7998 -7.2002 -16 -16 -16h-48.7002c-9 -11.9004 -19.5 -22.4004 -31.2998 -31.2998v-80.7002c0 -8.7998 -7.2002 -16 -16 -16h-64c-8.7998 0 -16 7.2002 -16 16v48h-128v-48c0 -8.7998 -7.2002 -16 -16 -16h-64
c-8.7998 0 -16 7.2002 -16 16v80.7002c-38.5996 29.2002 -64 75.0996 -64 127.3h-40c-33.2998 0 -59.9004 29.2002 -55.5 63.4004c3.59961 28.1992 29 48.5996 57.5 48.5996c3.2998 0 6 -2.7002 6 -6v-20c0 -3.2998 -2.7002 -6 -6 -6h-1
c-11.5996 0 -22.2998 -7.7998 -24.5 -19.2002c-3 -15.2998 8.7002 -28.7998 23.5 -28.7998h43.2002c14.8994 73 79.3994 128 156.8 128h128c7.90039 0 15.4004 -1.2002 23 -2.2998c17.5996 20.7998 43.5996 34.2998 73 34.2998h32l-18.9004 -75.5
c15.8008 -14.7998 28.6006 -32.5 37.4004 -52.5h29.5zM432 160c8.7998 0 16 7.2002 16 16s-7.2002 16 -16 16s-16 -7.2002 -16 -16s7.2002 -16 16 -16zM256 352c-16.4004 0 -32.2002 -2.2998 -47.4004 -6.2002c-0.0996094 2.10059 -0.599609 4.10059 -0.599609 6.2002
c0 53 43 96 96 96s96 -43 96 -96c0 -0.299805 -0.0996094 -0.5 -0.0996094 -0.799805c-5.2002 0.399414 -10.5 0.799805 -15.9004 0.799805h-128z" />
    <glyph glyph-name="skull" unicode="&#xf54c;" 
d="M256 448c141.4 0 256 -100.3 256 -224c0 -70.0996 -36.9004 -132.6 -94.5 -173.7c-9.7002 -6.89941 -15.2002 -18.2002 -13.5 -29.8994l9.40039 -66.2002c1.39941 -9.60059 -6 -18.2002 -15.7002 -18.2002h-77.7002v56c0 4.40039 -3.59961 8 -8 8h-16
c-4.40039 0 -8 -3.59961 -8 -8v-56h-64v56c0 4.40039 -3.59961 8 -8 8h-16c-4.40039 0 -8 -3.59961 -8 -8v-56h-77.7002c-9.7002 0 -17.0996 8.59961 -15.7002 18.2002l9.40039 66.2002c1.7002 11.7998 -3.90039 23 -13.5 29.8994
c-57.5996 41.1006 -94.5 103.601 -94.5 173.7c0 123.7 114.6 224 256 224zM160 128c35.2998 0 64 28.7002 64 64s-28.7002 64 -64 64s-64 -28.7002 -64 -64s28.7002 -64 64 -64zM352 128c35.2998 0 64 28.7002 64 64s-28.7002 64 -64 64s-64 -28.7002 -64 -64
s28.7002 -64 64 -64z" />
    <glyph glyph-name="tshirt" unicode="&#xf553;" horiz-adv-x="640" 
d="M631.2 351.5c7.89941 -3.90039 11.0996 -13.5996 7.09961 -21.5l-57.2998 -114.4c-4 -8 -13.5996 -11.1992 -21.5 -7.19922l-56.5996 27.6992c-10.6006 5.2002 -23 -2.59961 -23 -14.3994v-253.7c0 -17.7002 -14.3008 -32 -32 -32h-256c-17.7002 0 -32 14.2998 -32 32
v253.6c0 11.9004 -12.4004 19.6006 -23 14.4004l-56.6006 -27.7002c-7.89941 -3.89941 -17.5 -0.700195 -21.5 7.2002l-57.2002 114.5c-3.89941 7.90039 -0.699219 17.5 7.2002 21.5l194.7 96.5c20.0996 -27.7998 64.5996 -47.2002 116.5 -47.2002
s96.4004 19.4004 116.5 47.2002z" />
    <glyph glyph-name="award" unicode="&#xf559;" horiz-adv-x="384" 
d="M97.1201 85.3701c13.79 -13.7803 32.1104 -21.3701 51.6104 -21.3701c12.4395 0 24.4697 3.54004 35.3096 9.58008l-52.0498 -127.62c-4.39062 -10.7695 -18.4307 -13.4004 -26.4307 -4.95996l-36.2393 38.2803l-52.6904 -2.01074
c-11.6201 -0.439453 -19.8203 11.2607 -15.4297 22.0303l45.3701 111.24c7.55957 -5.87012 15.9199 -10.7705 25.4297 -13.3203c20.96 -5.60938 16.4297 -3.16016 25.1201 -11.8496zM382.8 -0.700195c4.39062 -10.7598 -3.80957 -22.4697 -15.4297 -22.0303
l-52.6904 2.01074l-36.25 -38.2803c-7.98926 -8.44043 -22.04 -5.80957 -26.4297 4.95996l-52.0498 127.62c10.8398 -6.03027 22.8701 -9.58008 35.3096 -9.58008c19.5 0 37.8301 7.58984 51.6201 21.3701c8.66992 8.66992 4.0498 6.20996 25.1201 11.8496
c9.50977 2.5498 17.8701 7.44043 25.4297 13.3203zM263 108c-13.2305 -13.4697 -33.8398 -15.8799 -49.7305 -5.82031c-6.13867 3.89746 -13.5029 6.15527 -21.3066 6.15527s-15.084 -2.25781 -21.2227 -6.15527c-15.9004 -10.0596 -36.5098 -7.64941 -49.7402 5.82031
c-14.7305 15 -16.4004 14.04 -38.7803 20.1396c-13.8896 3.79004 -24.75 14.8408 -28.4697 28.9805c-7.48047 28.3994 -5.54004 24.9697 -25.9502 45.75c-10.1699 10.3604 -14.1396 25.4502 -10.4199 39.5898c7.48047 28.4199 7.46973 24.46 0 52.8203
c-3.72949 14.1396 0.25 29.2295 10.4199 39.5801c20.4102 20.7793 18.4805 17.3594 25.9502 45.75c3.71973 14.1396 14.5801 25.1895 28.4697 28.9795c27.8906 7.61035 24.5303 5.62988 44.9404 26.4102c10.1699 10.3604 25 14.4004 38.8896 10.6104
c27.9199 -7.61035 24.0303 -7.60059 51.9004 0c13.8896 3.79004 28.7197 -0.260742 38.8896 -10.6104c20.4297 -20.79 17.0703 -18.7998 44.9502 -26.4102c13.8896 -3.79004 24.75 -14.8398 28.4697 -28.9795c7.48047 -28.3906 5.54004 -24.9707 25.9502 -45.75
c10.1699 -10.3506 14.1396 -25.4404 10.4199 -39.5801c-7.47949 -28.4102 -7.46973 -24.4502 0 -52.8301c3.71973 -14.1406 -0.25 -29.2305 -10.4199 -39.5801c-20.4102 -20.7803 -18.4697 -17.3506 -25.9502 -45.75c-3.71973 -14.1396 -14.5801 -25.1904 -28.4697 -28.9805
c-21.7598 -5.92969 -23.5098 -4.58984 -38.79 -20.1396zM97.6602 272.04c0 -53.0303 42.2402 -96.0205 94.3398 -96.0205s94.3398 42.9902 94.3398 96.0205s-42.2402 96.0195 -94.3398 96.0195s-94.3398 -42.9893 -94.3398 -96.0195z" />
    <glyph glyph-name="file-contract" unicode="&#xf56c;" horiz-adv-x="384" 
d="M224 312c0 -13.2002 10.7998 -24 24 -24h136v-328c0 -13.2998 -10.7002 -24 -24 -24h-336c-13.2998 0 -24 10.7002 -24 24v464c0 13.2998 10.7002 24 24 24h200v-136zM64 376v-16c0 -4.41992 3.58008 -8 8 -8h80c4.41992 0 8 3.58008 8 8v16c0 4.41992 -3.58008 8 -8 8
h-80c-4.41992 0 -8 -3.58008 -8 -8zM64 312v-16c0 -4.41992 3.58008 -8 8 -8h80c4.41992 0 8 3.58008 8 8v16c0 4.41992 -3.58008 8 -8 8h-80c-4.41992 0 -8 -3.58008 -8 -8zM256.81 64c-4.19922 0 -8.13965 2.44043 -10.1592 6.5
c-11.9502 23.8604 -46.2305 30.3496 -66 14.1602l-13.8809 41.6396c-3.28906 9.82031 -12.4297 16.4102 -22.7695 16.4102s-19.4805 -6.59961 -22.7803 -16.4102l-18.1895 -54.6396c-1.53027 -4.58008 -5.81055 -7.66016 -10.6406 -7.66016h-12.3896
c-8.83984 0 -16 -7.16016 -16 -16s7.16016 -16 16 -16h12.3896c18.6201 0 35.1104 11.8701 41 29.5303l10.6104 31.8799l16.8301 -50.46c2.03027 -6.14062 7.58008 -10.4404 14.0303 -10.8906c0.389648 -0.0292969 0.759766 -0.0498047 1.13965 -0.0498047
c0.00390625 0 -0.00292969 -0.015625 0.000976562 -0.015625c6.26074 0 11.6865 3.60742 14.3086 8.85547l7.6709 15.3408c2.7998 5.59961 7.93945 6.18945 10.0195 6.18945s7.21973 -0.599609 10.1699 -6.51953c7.37012 -14.7207 22.1904 -23.8604 38.6396 -23.8604
h47.1904c8.83984 0 16 7.16016 16 16s-7.16016 16 -16 16h-47.1904zM377 343c4.5 -4.5 7 -10.5996 7 -16.9004v-6.09961h-128v128h6.09961c6.40039 0 12.5 -2.5 17 -7z" />
    <glyph glyph-name="file-download" unicode="&#xf56d;" horiz-adv-x="384" 
d="M224 312c0 -13.2002 10.7998 -24 24 -24h136v-328c0 -13.2998 -10.7002 -24 -24 -24h-336c-13.2998 0 -24 10.7002 -24 24v464c0 13.2998 10.7002 24 24 24h200v-136zM300.45 100.64c10.1299 10.0703 3.00977 27.3604 -11.2705 27.3604h-65.1797v80
c0 8.83984 -7.16016 16 -16 16h-32c-8.83984 0 -16 -7.16016 -16 -16v-80h-65.1797c-14.2803 0 -21.4004 -17.29 -11.25 -27.3604l96.4199 -95.6992c6.64941 -6.61035 17.3896 -6.61035 24.04 0zM377 343c4.5 -4.5 7 -10.5996 7 -16.9004v-6.09961h-128v128h6.09961
c6.40039 0 12.5 -2.5 17 -7z" />
    <glyph glyph-name="file-export" unicode="&#xf56e;" horiz-adv-x="576" 
d="M384 326.1v-6.09961h-128v128h6.09961c6.40039 0 12.5 -2.5 17 -7l97.9004 -98c4.5 -4.5 7 -10.5996 7 -16.9004zM571 140c6.59961 -6.59961 6.59961 -17.4004 0 -24l-95.7002 -96.5c-10.0996 -10.0996 -27.3994 -3 -27.3994 11.2998v65.2002h-64v64h64v65.0996
c0 14.3008 17.2998 21.4004 27.3994 11.3008zM192 112c0 -8.7998 7.2002 -16 16 -16h176v-136c0 -13.2998 -10.7002 -24 -24 -24h-336c-13.2998 0 -24 10.7002 -24 24v464c0 13.2998 10.7002 24 24 24h200v-136c0 -13.2002 10.7998 -24 24 -24h136v-128h-176
c-8.7998 0 -16 -7.2002 -16 -16v-32z" />
    <glyph glyph-name="file-import" unicode="&#xf56f;" 
d="M16 160h112v-64h-112c-8.7998 0 -16 7.2002 -16 16v32c0 8.7998 7.2002 16 16 16zM505 343c4.5 -4.5 7 -10.5996 7 -16.9004v-6.09961h-128v128h6.09961c6.40039 0 12.5 -2.5 17 -7zM352 312c0 -13.2002 10.7998 -24 24 -24h136v-328c0 -13.2998 -10.7002 -24 -24 -24
h-336c-13.2998 0 -24 10.7002 -24 24v136h127.9v-65.0996c0 -14.3008 17.2998 -21.4004 27.3994 -11.3008l95.7002 96.4004c6.59961 6.59961 6.59961 17.2998 0 24l-95.5996 96.5c-10.1006 10.0996 -27.4004 3 -27.4004 -11.2998v-65.2002h-128v264
c0 13.2998 10.7002 24 24 24h200v-136z" />
    <glyph glyph-name="file-invoice" unicode="&#xf570;" horiz-adv-x="384" 
d="M288 192v-64h-192v64h192zM377 343c4.5 -4.5 7 -10.5996 7 -16.9004v-6.09961h-128v128h6.09961c6.40039 0 12.5 -2.5 17 -7zM224 312c0 -13.2002 10.7998 -24 24 -24h136v-328c0 -13.2998 -10.7002 -24 -24 -24h-336c-13.2998 0 -24 10.7002 -24 24v464
c0 13.2998 10.7002 24 24 24h200v-136zM64 376v-16c0 -4.41992 3.58008 -8 8 -8h80c4.41992 0 8 3.58008 8 8v16c0 4.41992 -3.58008 8 -8 8h-80c-4.41992 0 -8 -3.58008 -8 -8zM64 312v-16c0 -4.41992 3.58008 -8 8 -8h80c4.41992 0 8 3.58008 8 8v16
c0 4.41992 -3.58008 8 -8 8h-80c-4.41992 0 -8 -3.58008 -8 -8zM320 8v16c0 4.41992 -3.58008 8 -8 8h-80c-4.41992 0 -8 -3.58008 -8 -8v-16c0 -4.41992 3.58008 -8 8 -8h80c4.41992 0 8 3.58008 8 8zM320 208c0 8.83984 -7.16016 16 -16 16h-224
c-8.83984 0 -16 -7.16016 -16 -16v-96c0 -8.83984 7.16016 -16 16 -16h224c8.83984 0 16 7.16016 16 16v96z" />
    <glyph glyph-name="file-invoice-dollar" unicode="&#xf571;" horiz-adv-x="384" 
d="M377 343c4.5 -4.5 7 -10.5996 7 -16.9004v-6.09961h-128v128h6.09961c6.40039 0 12.5 -2.5 17 -7zM224 312c0 -13.2002 10.7998 -24 24 -24h136v-328c0 -13.2998 -10.7002 -24 -24 -24h-336c-13.2998 0 -24 10.7002 -24 24v464c0 13.2998 10.7002 24 24 24h200v-136z
M64 376v-16c0 -4.41992 3.58008 -8 8 -8h80c4.41992 0 8 3.58008 8 8v16c0 4.41992 -3.58008 8 -8 8h-80c-4.41992 0 -8 -3.58008 -8 -8zM64 296c0 -4.41992 3.58008 -8 8 -8h80c4.41992 0 8 3.58008 8 8v16c0 4.41992 -3.58008 8 -8 8h-80c-4.41992 0 -8 -3.58008 -8 -8
v-16zM208 32.1201c23.6201 0.629883 42.6699 20.54 42.6699 45.0703c0 19.9697 -12.9902 37.8096 -31.5801 43.3896l-45 13.5c-5.16016 1.54004 -8.76953 6.78027 -8.76953 12.7295c0 7.27051 5.2998 13.1904 11.7998 13.1904h28.1104
c4.55957 0 8.94922 -1.29004 12.8193 -3.71973c3.24023 -2.03027 7.36035 -1.91016 10.1299 0.729492l11.75 11.21c3.53027 3.37012 3.33008 9.20996 -0.569336 12.1406c-9.10059 6.83984 -20.0801 10.7695 -31.3701 11.3496v24.29c0 4.41992 -3.58008 8 -8 8h-16
c-4.41992 0 -8 -3.58008 -8 -8v-24.1201c-23.6201 -0.629883 -42.6699 -20.5498 -42.6699 -45.0703c0 -19.9697 12.9893 -37.8096 31.5801 -43.3896l45 -13.5c5.15918 -1.54004 8.76953 -6.78027 8.76953 -12.7295c0 -7.27051 -5.2998 -13.1904 -11.7998 -13.1904h-28.1104
c-4.55957 0 -8.9502 1.2998 -12.8193 3.71973c-3.24023 2.03027 -7.36035 1.91016 -10.1309 -0.729492l-11.75 -11.21c-3.5293 -3.37012 -3.3291 -9.20996 0.570312 -12.1406c9.10059 -6.83008 20.0801 -10.7695 31.3701 -11.3496v-24.29c0 -4.41992 3.58008 -8 8 -8h16
c4.41992 0 8 3.58008 8 8v24.1201z" />
    <glyph glyph-name="file-prescription" unicode="&#xf572;" horiz-adv-x="384" 
d="M224 312c0 -13.2002 10.7998 -24 24 -24h136v-328c0 -13.2998 -10.7002 -24 -24 -24h-336c-13.2998 0 -24 10.7002 -24 24v464c0 13.2998 10.7002 24 24 24h200v-136zM292.53 132.52c-6.25 6.25 -16.3799 6.25 -22.6299 0l-29.9004 -29.8994l-33.46 33.46
c19.8398 10.8701 33.46 31.7002 33.46 55.9199c0 35.3496 -28.6504 64 -64 64h-80c-8.83984 0 -16 -7.16016 -16 -16v-160c0 -8.83984 7.16016 -16 16 -16h16c8.83984 0 16 7.16016 16 16v48h18.7402l59.3193 -59.3096l-30.0596 -30.0605
c-6.25 -6.25 -6.25 -16.3799 0 -22.6299l11.3096 -11.3096c6.25 -6.25 16.3809 -6.25 22.6309 0l30.0596 30.0596l30.0596 -30.0703c6.25 -6.25 16.3809 -6.25 22.6309 0l11.3096 11.3105c6.25 6.25 6.25 16.3799 0 22.6299l-30.0596 30.0596l29.8994 29.9004
c6.25 6.25 6.25 16.3799 0 22.6299zM176 176h-48v32h48c8.82031 0 16 -7.17969 16 -16s-7.17969 -16 -16 -16zM384 326.1v-6.09961h-128v128h6.09961c6.40039 0 12.5 -2.5 17 -7l97.9004 -98c4.5 -4.5 7 -10.5996 7 -16.9004z" />
    <glyph glyph-name="file-signature" unicode="&#xf573;" horiz-adv-x="576" 
d="M218.17 23.8604c7.25 -14.4707 21.71 -23.4404 37.8301 -23.75l128 -0.110352v-40c0 -13.2998 -10.7002 -24 -24 -24h-336c-13.2998 0 -24 10.7002 -24 24v464c0 13.2998 10.7002 24 24 24h200v-136c0 -13.2002 10.7998 -24 24 -24h136.01v-46.5498l-128 -127.09
v-82.1201c-3.87012 0.30957 -7.46973 2.47949 -9.35938 6.25977c-11.9404 23.8604 -46.25 30.3496 -66 14.1602l-13.8809 41.6396c-3.28906 9.82031 -12.4297 16.4102 -22.7695 16.4102s-19.4805 -6.59961 -22.7803 -16.4102l-18.1895 -54.6396
c-1.53027 -4.58008 -5.81055 -7.66016 -10.6406 -7.66016h-12.3896c-8.83984 0 -16 -7.16016 -16 -16s7.16016 -16 16 -16h12.3896c18.6201 0 35.1104 11.8701 41 29.5303l10.6104 31.8799l16.8301 -50.4697c4.4502 -13.46 23.1104 -14.8701 29.4795 -2.09082
l7.6709 15.3408c2.7998 5.59961 7.93945 6.18945 10.0195 6.18945s7.21973 -0.599609 10.1699 -6.51953zM384 326.1v-6.09961h-128v128h6.09961c6.40039 0 12.5 -2.5 17 -7l97.9004 -98c4.5 -4.5 7 -10.5996 7 -16.9004zM288 101.04l162.79 161.62l67.8799 -67.8799
l-161.68 -162.78h-68.9902v69.04zM568.54 280.67c9.9502 -9.93945 9.9502 -26.0703 0 -36.0098l-27.25 -27.25l-67.8799 67.8799l27.25 27.25c9.93945 9.94043 26.0703 9.94043 36.0098 0z" />
    <glyph glyph-name="file-upload" unicode="&#xf574;" horiz-adv-x="384" 
d="M224 312c0 -13.2002 10.7998 -24 24 -24h136v-328c0 -13.2998 -10.7002 -24 -24 -24h-336c-13.2998 0 -24 10.7002 -24 24v464c0 13.2998 10.7002 24 24 24h200v-136zM289.18 95.9902c14.2803 0 21.4004 17.29 11.25 27.3594l-96.4199 95.7002
c-6.64941 6.61035 -17.3896 6.61035 -24.04 0l-96.4199 -95.7002c-10.1396 -10.0693 -3.00977 -27.3594 11.2705 -27.3594h65.1797v-80c0 -8.83984 7.16016 -16 16 -16h32c8.83984 0 16 7.16016 16 16v80h65.1797zM377 343c4.5 -4.5 7 -10.5996 7 -16.9004v-6.09961h-128
v128h6.09961c6.40039 0 12.5 -2.5 17 -7z" />
    <glyph glyph-name="stamp" unicode="&#xf5bf;" 
d="M32 -64v64h448v-64h-448zM416 192c53.0195 0 96 -42.9805 96 -96v-32c0 -17.6699 -14.3301 -32 -32 -32h-448c-17.6699 0 -32 14.3301 -32 32v32c0 53.0195 42.9805 96 96 96h66.5596c16.2607 0 29.4404 13.1797 29.4404 29.4404v0.0693359
c0 31.79 -9.98047 62.0605 -23.3096 90.9102c-5.57031 12.04 -8.69043 25.4199 -8.69043 39.5801c0 58.6699 52.6201 105.04 113.25 94.4902c38.79 -6.75 70.4902 -38.6699 77.2598 -77.4502c3.85059 -22.0303 0.0605469 -42.8096 -9.0498 -60.4199
c-12.5801 -24.3105 -21.46 -50.3506 -21.46 -77.7197v-9.45996c0 -16.2607 13.1797 -29.4404 29.4404 -29.4404h66.5596z" />
    <glyph glyph-name="suitcase-rolling" unicode="&#xf5c1;" horiz-adv-x="384" 
d="M336 288c26.5098 0 48 -21.4902 48 -48v-224c0 -26.5098 -21.4902 -48 -48 -48h-16v-16c0 -8.83984 -7.16016 -16 -16 -16h-32c-8.83984 0 -16 7.16016 -16 16v16h-128v-16c0 -8.83984 -7.16016 -16 -16 -16h-32c-8.83984 0 -16 7.16016 -16 16v16h-16
c-26.5098 0 -48 21.4902 -48 48v224c0 26.5098 21.4902 48 48 48h288zM320 72v16c0 4.41992 -3.58008 8 -8 8h-240c-4.41992 0 -8 -3.58008 -8 -8v-16c0 -4.41992 3.58008 -8 8 -8h240c4.41992 0 8 3.58008 8 8zM320 168v16c0 4.41992 -3.58008 8 -8 8h-240
c-4.41992 0 -8 -3.58008 -8 -8v-16c0 -4.41992 3.58008 -8 8 -8h240c4.41992 0 8 3.58008 8 8zM144 400v-80h-48v80c0 26.5098 21.4902 48 48 48h96c26.5098 0 48 -21.4902 48 -48v-80h-48v80h-96z" />
    <glyph glyph-name="file-certificate" unicode="&#xf5f3;" 
d="M504.99 342.99c7.63965 -7.65039 7 -15.4707 7 -23h-128v128c7.09961 0 15.3896 0.709961 23.0996 -7zM351.99 311.99c0 -13.2002 10.7998 -24 24 -24h136v-327.99c0 -13.2998 -10.7002 -24 -24 -24h-263.99v91.1904c17.3398 7.36914 30.6104 22.5293 35.5 41.1191
c3.70996 14.1104 1.11035 9.63086 10.75 18.9902c15.2402 15.5205 21.2598 38.2598 15.6904 59.3701c-3.70996 14.1104 -3.75 8.88965 0 22.1201c5.55957 21.0996 -0.450195 43.8496 -15.7002 59.3604c-10.1504 10.3301 -7.64062 5.79004 -10.75 18.9893
c-5.58984 21.2705 -22.1602 38.0508 -43.2305 43.8008c-13.8701 3.7793 -9.55957 1.16992 -18.2793 10.7598c-11.4307 11.6299 -27.3008 18.2998 -43.5303 18.2998c-6.87012 0 -8.15039 0 -26.4502 -5v108.99c0 13.2998 10.7002 24 24 24h199.99v-136zM247.42 109.72
c-14.8701 -15.1396 -13.4102 -12.5293 -18.8799 -33.2695c-2.70996 -10.2803 -10.5996 -18.3105 -20.71 -21.0703c-14.3203 -3.89941 -11.5303 -2.97949 -15.8398 -5v-114.38l-64 32l-64 -32v114.39c-4.32031 2.03027 -1.53027 1.10059 -15.8398 5
c-10.1104 2.75 -18 10.79 -20.71 21.0703c-5.44043 20.6602 -4.02051 18.1602 -18.8701 33.2705c-7.40039 7.5293 -10.29 18.5098 -7.58008 28.7891c5.41992 20.6201 5.4502 17.7002 0 38.4102c-2.70996 10.29 0.179688 21.2607 7.58008 28.79
c14.8701 15.1406 13.4102 12.5303 18.8701 33.2705c2.70996 10.2793 10.5996 18.3096 20.71 21.0693c20.1895 5.51074 17.7793 4.03027 32.6895 19.21c7.40039 7.52051 18.1797 10.4707 28.2803 7.71094c20.29 -5.53027 17.4297 -5.54004 37.75 0
c10.0996 2.75977 20.8799 -0.180664 28.2803 -7.71094c14.8496 -15.1094 12.4092 -13.6797 32.6895 -19.21c10.1104 -2.75 18 -10.79 20.71 -21.0693c5.44043 -20.6602 4.00977 -18.1504 18.8701 -33.2705c7.40039 -7.5293 10.29 -18.5098 7.58008 -28.79
c-5.44043 -20.6797 -5.42969 -17.7695 0 -38.4199c2.70996 -10.29 -0.179688 -21.2598 -7.58008 -28.79zM128 95.9902c35.3398 0 64 28.6494 64 64c0 35.3496 -28.6602 64 -64 64s-64 -28.6504 -64 -64c0 -35.3506 28.6602 -64 64 -64z" />
    <glyph glyph-name="theater-masks" unicode="&#xf630;" horiz-adv-x="640" 
d="M206.86 202.85l-7.62988 -43.1797c-21.0908 -7.21973 -38.5 -18.2002 -49.9004 -30.9199c-2.41992 32.9004 21.6504 63.6504 57.5303 74.0996zM95.8096 153c5.87012 -33.1699 64.3203 -71.8096 111.931 -84.79c10.5596 -27.0996 25.9795 -50.5 39.5 -67.5801
c-3.25977 -0.339844 -6.41992 -0.799805 -10.0098 -0.799805c-68.1201 0 -190.221 61.5596 -204.45 142.08l-31.7305 179.51c-4.96973 28.0996 7.98047 56.0996 32.1504 69.5205c67.8193 37.6396 143.46 57.0596 220.12 57.0596c23.9199 0 47.9492 -1.88965 71.8594 -5.7002
c17.29 -2.76953 31.7803 -13.0498 41.7705 -27c-19.1299 -0.769531 -38.29 -2.2998 -57.1807 -5.31934c-19.8594 -3.1709 -37.6396 -12.5303 -51.5898 -26c-1.62012 0.0195312 -3.23926 0.189453 -4.84961 0.189453c-65.8896 0 -131.25 -16.9502 -189.01 -49.0098
c0.0400391 -0.0302734 -0.530273 -1.03027 -0.240234 -2.65039zM193.36 290.46c3.83984 -21.7002 -10.6904 -42.4004 -32.4404 -46.2197c-21.7598 -3.82031 -42.5 10.6699 -46.3398 32.3701c-0.730469 4.12012 -0.610352 8.15918 -0.0898438 12.0996
c10.8096 -5.57031 24.8301 -7.75 39.4795 -5.16992c14.6504 2.57031 27.0703 9.41016 35.3203 18.3203c1.83984 -3.53027 3.33984 -7.28027 4.07031 -11.4004zM606.8 327.1c24.1699 -13.4092 37.1201 -41.4092 32.1504 -69.5195l-31.7305 -179.51
c-15.3896 -87.0508 -156.83 -151.931 -219.859 -140.84c-63.0303 11.0791 -173.7 120.3 -158.311 207.35l31.7305 179.51c4.95996 28.1006 26.7295 50 54.04 54.3604c100.55 16.0596 203 -1.96973 291.979 -51.3506zM333.56 230.3
c-0.729492 -4.12012 -0.609375 -8.16016 -0.0791016 -12.1094c10.8096 5.56934 24.8291 7.75 39.4795 5.16992c14.6504 -2.57031 27.0703 -9.41016 35.3203 -18.3203c1.83984 3.53027 3.33984 7.28027 4.06934 11.4004c3.83008 21.6992 -10.6895 42.3896 -32.4492 46.2197
c-21.7607 3.83008 -42.5 -10.6602 -46.3408 -32.3604zM404.03 31.54c55.6699 -9.79004 108.2 23.7803 122.38 75.7197c-28.1104 -16.9697 -68.6504 -24.21 -111.93 -16.5996c-43.2803 7.60938 -78.8906 28.2402 -99.4902 53.7803
c-4.48047 -53.6309 33.3594 -103.11 89.04 -112.9zM534.33 182.88c1.83984 3.52051 3.33984 7.27051 4.07031 11.4004c3.83008 21.7002 -10.7002 42.3896 -32.4502 46.2197c-21.7598 3.82031 -42.5 -10.6699 -46.3398 -32.3701
c-0.730469 -4.12012 -0.610352 -8.16016 -0.0908203 -12.0996c10.8105 5.56934 24.8301 7.75 39.4805 5.16992c14.6504 -2.57031 27.0801 -9.41016 35.3301 -18.3203z" />
    <glyph glyph-name="tire" unicode="&#xf631;" 
d="M256 448c141.38 0 256 -114.62 256 -256s-114.62 -256 -256 -256s-256 114.62 -256 256s114.62 256 256 256zM256 0c105.87 0 192 86.1299 192 192s-86.1299 192 -192 192s-192 -86.1299 -192 -192s86.1299 -192 192 -192zM176 192
c0 -0.25 0.0703125 -0.480469 0.0703125 -0.719727l-77.46 -25.1699c-1.39062 8.46973 -2.61035 17.0195 -2.61035 25.8896c0 44.5498 18.2695 84.7803 47.6504 113.79l48.2295 -66.3799c-9.84961 -13.29 -15.8799 -29.5898 -15.8799 -47.4102zM191 145.64
c9.95996 -13.9297 24.3096 -24.29 41 -29.5693v-81.6504c-52.0996 7.90039 -95.5596 40.6699 -118.42 86.0703zM256 272c-8.87012 0 -17.25 -1.79004 -25.2197 -4.4502l-47.9307 65.9697c22.0107 11.4209 46.6406 18.4805 73.1504 18.4805
s51.1396 -7.05957 73.1504 -18.4805l-47.9307 -65.9697c-7.96973 2.66016 -16.3496 4.4502 -25.2197 4.4502zM368.35 305.79c29.3809 -29.0098 47.6504 -69.2402 47.6504 -113.8c0 -8.87012 -1.21973 -17.4102 -2.61035 -25.8906l-77.46 25.1699
c0 0.25 0.0703125 0.480469 0.0703125 0.730469c0 17.8203 -6.03027 34.1201 -15.8799 47.4102zM280 116.07c16.6904 5.2793 31.04 15.6396 41 29.5693l77.4199 -25.1494c-22.8701 -45.4004 -66.3203 -78.1699 -118.42 -86.0703v81.6504zM256 224
c17.6699 0 32 -14.3301 32 -32s-14.3301 -32 -32 -32s-32 14.3301 -32 32s14.3301 32 32 32z" />
    <glyph glyph-name="tire-flat" unicode="&#xf632;" 
d="M256 288c26.5098 0 51.1396 -7.05957 73.1504 -18.4805l-47.9307 -65.9697c-7.96973 2.66016 -16.3496 4.4502 -25.2197 4.4502s-17.25 -1.79004 -25.2197 -4.4502l-47.9307 65.9697c22.0107 11.4209 46.6406 18.4805 73.1504 18.4805zM96 128
c0 44.5498 18.2695 84.7803 47.6504 113.8l48.2295 -66.3799c-9.84961 -13.29 -15.8799 -29.5898 -15.8799 -47.4102c0 -0.25 0.0703125 -0.479492 0.0703125 -0.729492l-77.46 -25.1699c-1.39062 8.46973 -2.61035 17.0195 -2.61035 25.8896zM320.12 175.41
l48.2295 66.3701c29.3809 -29.0107 47.6504 -69.2402 47.6504 -113.79c0 -8.87012 -1.21973 -17.4102 -2.61035 -25.8906l-77.46 25.1699c0 0.25 0.0703125 0.480469 0.0703125 0.730469c0 17.8203 -6.03027 34.1201 -15.8799 47.4102zM256 160
c17.6699 0 32 -14.3301 32 -32s-14.3301 -32 -32 -32s-32 14.3301 -32 32s14.3301 32 32 32zM480 0c17.6699 0 32 -14.3301 32 -32s-14.3301 -32 -32 -32h-448c-17.6699 0 -32 14.3301 -32 32s14.3301 32 32 32h2.61035c-21.9102 37.6396 -34.6104 81.29 -34.6104 128
c0 141.38 114.62 256 256 256s256 -114.62 256 -256c0 -46.71 -12.7002 -90.3604 -34.6104 -128h2.61035zM398.7 0c30.54 34.0098 49.2998 78.7998 49.2998 128c0 105.87 -86.1299 192 -192 192s-192 -86.1299 -192 -192c0 -49.2002 18.7598 -93.9902 49.2998 -128h47.79
c-20.0088 14.8672 -36.2041 34.0537 -47.5098 56.4902l77.4199 25.1494c9.95996 -13.9297 24.3096 -24.29 41 -29.5693v-52.0703h48v52.0703c16.6904 5.2793 31.04 15.6299 41 29.5693l77.4199 -25.1494c-11.3057 -22.4365 -27.501 -41.623 -47.5098 -56.4902h47.79z" />
    <glyph glyph-name="tire-rugged" unicode="&#xf634;" 
d="M480 256c17.6699 0 32 -14.3301 32 -32.0098v-64c0 -17.6699 -14.3301 -32 -32 -32h-9.40039c-4.42969 -14.8799 -10.2598 -29.1504 -17.5293 -42.5605l6.58008 -6.58008c12.5 -12.4893 12.5 -32.75 0 -45.25l-45.25 -45.2598c-12.5 -12.5 -32.7607 -12.5 -45.2607 0
l-6.58008 6.58008c-13.4092 -7.25977 -27.6797 -13.0996 -42.5596 -17.5303v-9.39941c0 -17.6699 -14.3301 -32 -32 -32h-64c-17.6699 0 -32 14.3301 -32 32v9.39941c-14.8799 4.43066 -29.1504 10.2607 -42.5596 17.5303l-6.58008 -6.58008
c-12.5 -12.5 -32.7607 -12.5 -45.2607 0l-45.25 45.2598c-12.5 12.4902 -12.5 32.75 0 45.25l6.58008 6.58008c-7.25977 13.4102 -13.0996 27.6807 -17.5293 42.5605h-9.40039c-17.6699 0 -32 14.3301 -32 32v64c0 17.6699 14.3301 32 32 32h9.40039
c4.42969 14.8799 10.2598 29.1494 17.5293 42.5596l-6.58008 6.58008c-12.5 12.5 -12.5 32.7598 0 45.2598l45.25 45.2607c12.5 12.5 32.7607 12.5 45.2607 0l6.58008 -6.58008c13.4092 7.25977 27.6797 13.0996 42.5596 17.5293v9.40039c0 17.6699 14.3301 32 32 32h64
c17.6699 0 32 -14.3301 32 -32v-9.40039c14.8799 -4.42969 29.1504 -10.2598 42.5596 -17.5293l6.58008 6.58008c12.5 12.5 32.7607 12.5 45.2607 0l45.25 -45.25c12.5 -12.5 12.5 -32.7607 0 -45.2607l-6.58008 -6.58008
c7.25977 -13.4092 13.0996 -27.6797 17.5293 -42.5596h9.40039zM256 64.0195c70.6904 0 128 57.3008 128 128c0 70.6904 -57.3096 128 -128 128s-128 -57.3096 -128 -128c0 -70.6895 57.3096 -128 128 -128zM256 288c13.25 0 24 -10.7402 24 -24
c0 -13.25 -10.75 -24 -24 -24s-24 10.75 -24 24c0 13.2598 10.75 24 24 24zM256 144c13.25 0 24 -10.7402 24 -24c0 -13.25 -10.75 -24 -24 -24s-24 10.75 -24 24c0 13.2598 10.75 24 24 24zM328 216c13.25 0 24 -10.7402 24 -24c0 -13.25 -10.75 -24 -24 -24
s-24 10.75 -24 24c0 13.2598 10.75 24 24 24zM184 216c13.25 0 24 -10.7402 24 -24c0 -13.25 -10.75 -24 -24 -24s-24 10.75 -24 24c0 13.2598 10.75 24 24 24z" />
    <glyph glyph-name="watch-fitness" unicode="&#xf63e;" horiz-adv-x="384" 
d="M64 -32v16h256v-16c0 -17.6699 -14.3301 -32 -32 -32h-192c-17.6699 0 -32 14.3301 -32 32zM320 416v-16h-256v16c0 17.6699 14.3301 32 32 32h192c17.6699 0 32 -14.3301 32 -32zM320 368c35.3496 0 64 -28.6504 64 -64v-224c0 -35.3496 -28.6504 -64 -64 -64h-256
c-35.3496 0 -64 28.6504 -64 64v224c0 35.3496 28.6504 64 64 64h256zM286.57 185.79c24.5996 24.8701 23.1602 66.1201 -4.33008 89.0801c-23.96 20.0098 -59.6504 16.4199 -81.6201 -5.81055l-8.62012 -8.71973l-8.62012 8.71973
c-21.9697 22.2305 -57.6602 25.8301 -81.6201 5.81055c-27.4902 -22.9502 -28.9297 -64.2002 -4.33008 -89.0801l84.6699 -85.6396c2.52051 -2.56152 6.02832 -4.15039 9.90137 -4.15039c3.87402 0 7.37891 1.58887 9.89941 4.15039z" />
    <glyph glyph-name="ad" unicode="&#xf641;" 
d="M157.52 176l18.4805 53.2197l18.4805 -53.2197h-36.9609zM352 192c13.2305 0 24 -10.7695 24 -24s-10.7695 -24 -24 -24s-24 10.7695 -24 24s10.7695 24 24 24zM464 384c26.5 0 48 -21.5 48 -48v-288c0 -26.5 -21.5 -48 -48 -48h-416c-26.5 0 -48 21.5 -48 48v288
c0 26.5 21.5 48 48 48h416zM250.58 96c11 0 18.7197 10.8496 15.1104 21.25l-53.6904 154.62c-3.25586 9.3877 -12.1758 16.1299 -22.666 16.1299h-0.00390625h-26.6602l0.00292969 0.00585938c-10.4873 0 -19.4131 -6.74219 -22.6729 -16.126l-53.7002 -154.63
c-3.60938 -10.4004 4.11035 -21.25 15.1201 -21.25h16.9404c0.00195312 0 -0.000976562 -0.00390625 0.000976562 -0.00390625c6.99316 0 12.9453 4.49609 15.1191 10.7539l7.37988 21.25h70.29l7.36914 -21.25c2.24023 -6.42969 8.31055 -10.75 15.1201 -10.75h16.9404z
M424 112v160c0 8.83984 -7.16016 16 -16 16h-16c-8.83984 0 -16 -7.16016 -16 -16v-36.4199c-7.54004 2.68945 -15.54 4.41992 -24 4.41992c-39.7002 0 -72 -32.2998 -72 -72s32.2998 -72 72 -72c9.92969 0 19.4004 2.01953 28.0195 5.67969
c2.94043 -3.41016 7.13086 -5.67969 11.9805 -5.67969h16c8.83984 0 16 7.16016 16 16z" />
    <glyph glyph-name="file-chart-line" unicode="&#xf659;" horiz-adv-x="384" 
d="M377 343c4.5 -4.5 7 -10.5996 7 -16.9004v-6.09961h-128v128h6.09961c6.40039 0 12.5 -2.5 17 -7zM224 312c0 -13.2002 10.7998 -24 24 -24h136v-328c0 -13.2998 -10.7002 -24 -24 -24h-336c-13.2998 0 -24 10.7002 -24 24v464c0 13.2998 10.7002 24 24 24h200v-136z
M128 12.7998v70.4004c0 6.39941 -6.40039 12.7998 -12.7998 12.7998h-38.4004c-6.39941 0 -12.7998 -6.40039 -12.7998 -12.7998v-70.4004c0 -6.39941 6.40039 -12.7998 12.7998 -12.7998h38.4004c6.39941 0 12.7998 6.40039 12.7998 12.7998zM224 12.7998v198.4
c0 6.39941 -6.40039 12.7998 -12.7998 12.7998h-38.4004c-6.39941 0 -12.7998 -6.40039 -12.7998 -12.7998v-198.4c0 -6.39941 6.40039 -12.7998 12.7998 -12.7998h38.4004c6.39941 0 12.7998 6.40039 12.7998 12.7998zM256 147.2v-134.4
c0 -6.39941 6.40039 -12.7998 12.7998 -12.7998h38.4004c6.39941 0 12.7998 6.40039 12.7998 12.7998v134.4c0 6.39941 -6.40039 12.7998 -12.7998 12.7998h-38.4004c-6.39941 0 -12.7998 -6.40039 -12.7998 -12.7998z" />
    <glyph glyph-name="file-chart-pie" unicode="&#xf65a;" horiz-adv-x="384" 
d="M224 312c0 -13.2002 10.7998 -24 24 -24h136v-328c0 -13.2998 -10.7002 -24 -24 -24h-336c-13.2998 0 -24 10.7002 -24 24v464c0 13.2998 10.7002 24 24 24h200v-136zM136.51 9.46973c77.3506 -30.0498 150.69 17.4404 164.83 86.5303h-141.34v141.34
c-69.0898 -14.1396 -116.58 -87.4795 -86.5303 -164.84c11.1699 -28.7305 34.3105 -51.8701 63.04 -63.0303zM312.14 128.02c-0.00976562 66.3408 -53.7793 120.11 -120.12 120.12c-0.00976562 0 -0.0195312 0.0107422 -0.0195312 0v-120.14h120.14
c0.0107422 0 0 0.00976562 0 0.0195312zM377 343c4.5 -4.5 7 -10.5996 7 -16.9004v-6.09961h-128v128h6.09961c6.40039 0 12.5 -2.5 17 -7z" />
    <glyph glyph-name="file-spreadsheet" unicode="&#xf65b;" horiz-adv-x="384" 
d="M296 80v-48h-48v48h48zM216 160v-48h-48v48h48zM296 160v-48h-48v48h48zM216 80v-48h-48v48h48zM224 312c0 -13.2002 10.7998 -24 24 -24h136v-328c0 -13.2998 -10.7002 -24 -24 -24h-336c-13.2998 0 -24 10.7002 -24 24v464c0 13.2998 10.7002 24 24 24h200v-136z
M328 208c0 8.83984 -7.16016 16 -16 16h-240c-8.83984 0 -16 -7.16016 -16 -16v-192c0 -8.83984 7.16016 -16 16 -16h240c8.83984 0 16 7.16016 16 16v192zM377 343c4.5 -4.5 7 -10.5996 7 -16.9004v-6.09961h-128v128h6.09961c6.40039 0 12.5 -2.5 17 -7zM136 160v-48h-48
v48h48zM136 80v-48h-48v48h48z" />
    <glyph glyph-name="file-user" unicode="&#xf65c;" horiz-adv-x="384" 
d="M224 312c0 -13.2002 10.7998 -24 24 -24h136v-328c0 -13.2998 -10.7002 -24 -24 -24h-336c-13.2998 0 -24 10.7002 -24 24v464c0 13.2998 10.7002 24 24 24h200v-136zM304 38.4004c0 31.8096 -30.0898 57.5996 -67.2002 57.5996h-4.9502
c-12.29 -5.12012 -25.7295 -8 -39.8496 -8s-27.5596 2.87988 -39.8496 8h-4.9502c-37.1104 0 -67.2002 -25.79 -67.2002 -57.5996v-19.2002c0 -10.6006 10.0303 -19.2002 22.4004 -19.2002h179.199c12.3701 0 22.4004 8.58984 22.4004 19.2002v19.2002zM192 128
c35.3496 0 64 28.6504 64 64s-28.6504 64 -64 64s-64 -28.6504 -64 -64s28.6504 -64 64 -64zM377 343c4.5 -4.5 7 -10.5996 7 -16.9004v-6.09961h-128v128h6.09961c6.40039 0 12.5 -2.5 17 -7z" />
    <glyph glyph-name="socks" unicode="&#xf696;" 
d="M214.66 136.99c-52.7402 -39.5605 -69.0498 -110.021 -39.2002 -165.4l-21.8604 -16.3896c-17.2695 -12.9502 -37.4893 -19.2002 -57.5195 -19.2002c-32.8105 0 -65.6904 16.75 -83.9404 48.3301c-24.6494 42.6396 -10.1895 97.5 29.21 127.06l86.6504 64.6104v176h160
v-160zM288 416v-32h-160v32c0 17.6699 14.3301 32 32 32h128c2.84961 0 5.40039 -0.919922 8.01953 -1.62012c-4.94922 -9.08008 -8.01953 -19.3301 -8.01953 -30.3799zM480 448c17.6699 0 32 -14.3301 32 -32v-32h-192v32c0 17.6699 14.3301 32 32 32h128zM320 176v176h192
v-208c0 -41.8877 -20.0566 -79.043 -51.2002 -102.4l-115.2 -86.3994c-17.2695 -12.9502 -37.4893 -19.2002 -57.5195 -19.2002c-32.8105 0 -65.1699 16.75 -83.4199 48.3301c-24.6504 42.6396 -10.1904 97.5 29.21 127.06z" />
    <glyph glyph-name="torah" unicode="&#xf6a0;" horiz-adv-x="640" 
d="M320.05 81.5195l-17.7402 29.6406h35.46zM419.26 247.52l-18.3994 -30.8193l-18.46 30.8193h36.8594zM48 448c26.5098 0 48 -14.3301 48 -32v-448c0 -17.6699 -21.4902 -32 -48 -32s-48 14.3301 -48 32v448c0 17.6699 21.4902 32 48 32zM220.74 136.5l18.3896 30.8203
l18.46 -30.8203h-36.8496zM382.45 136.5l18.4102 30.7998l18.4492 -30.7998h-36.8594zM128 -16v416h384v-416h-384zM194.77 262.13c-1.7627 -3.04492 -2.77148 -6.62402 -2.77148 -10.3936c0 -3.92969 1.09668 -7.60547 3.00195 -10.7363l29.3604 -49l-29.21 -48.8398
c-1.91211 -3.17578 -3.02637 -6.91699 -3.02637 -10.8906c0 -11.6504 9.45898 -21.1094 21.1104 -21.1094h0.015625h59.5l29.25 -48.8799c3.61816 -6.12793 10.2754 -10.2207 17.9004 -10.2207h0.0996094c7.7373 0.0166016 14.4912 4.17676 18.1602 10.4004l29.1299 48.7002
h59.4697c0.0078125 0 0.00195312 -0.0224609 0.00878906 -0.0224609c7.90723 0 14.8115 4.32812 18.4717 10.7422c1.75879 3.04199 2.76562 6.61621 2.76562 10.3799c0 3.93164 -1.09863 7.6084 -3.00586 10.7402l-29.3701 49l29.2402 48.8496
c1.90723 3.17383 3.01758 6.91113 3.01758 10.8809c0 11.6553 -9.46191 21.1182 -21.1182 21.1191h-59.5195l-29.25 48.8604c-3.6123 6.12207 -10.2617 10.21 -17.8779 10.21h-0.0722656c-0.0117188 0 -0.00976562 0.0224609 -0.0214844 0.0224609
c-7.74316 0 -14.5186 -4.17383 -18.1982 -10.3926l-29.1299 -48.71h-59.4502c-0.015625 0 -0.0166016 0.0224609 -0.0322266 0.0224609c-7.89844 0 -14.7939 -4.32422 -18.4482 -10.7324zM592 448c26.5098 0 48 -14.3301 48 -32v-448c0 -17.6699 -21.4902 -32 -48 -32
s-48 14.3301 -48 32v448c0 17.6699 21.4902 32 48 32zM320 302.47l17.6797 -29.6201h-35.46zM257.55 247.47l-18.3701 -30.7998l-18.4395 30.7998h36.8096zM287.13 136.47l-33.2295 55.5303l33.1699 55.5195h65.79l33.2295 -55.5195l-33.1699 -55.5303h-65.79z" />
    <glyph glyph-name="badger-honey" unicode="&#xf6b4;" horiz-adv-x="640" 
d="M622.25 305.53c10.8701 -6.15039 17.75 -18.8701 17.75 -32.7998c0 -11.8301 -9.16016 -32.3506 -16.1602 -47.6201c-4.74023 -10.3408 -12.7295 -17.4404 -41.1895 -19.8105l-22.6504 -45.2998l-18.8301 37.6504c-51.2402 -14.4707 -107.1 -45.0107 -152.479 -75.5508
l27 -134.96c1.97949 -9.89941 -5.59082 -19.1396 -15.6904 -19.1396h-63.3701c-7.62988 0 -14.1895 5.37988 -15.6895 12.8604l-23.0303 115.14h-105.69l-32.96 -66.8604l15.5498 -41.2598c2.53027 -10.0996 -5.10938 -19.8799 -15.5195 -19.8799h-63.7705
c-7.48828 0.00195312 -13.7803 5.16602 -15.5195 12.1201l-14.0898 35.4102c-1.24707 4.98047 -1.8916 10.1924 -1.8916 15.5576c0 7.8916 1.43262 15.4502 4.05176 22.4316l21.4893 57.3008c-25.4795 16.9395 -45.7393 47.7998 -53.5293 81.1797h-20.0303
c-8.83984 0 -16 7.16016 -16 16v16c0 70.6904 57.3096 128 128 128h226.95c19.0996 0 37.9395 6.9502 55.0303 16.79c17.3799 10 36.4199 15.21 55.4697 15.21c13.9502 0 27.9199 -2.7998 41.2402 -8.5498c44.5791 -19.25 57.9092 -37.2705 115.56 -69.9199zM515.19 288
h43.8799c-34.9805 22.96 -44.54 31.7803 -71.4102 43.3799c-7.08984 3.07031 -14.5605 4.62012 -22.21 4.62012c-10.6104 0 -21.5098 -3.04004 -31.5303 -8.80957c-26.7295 -15.3906 -53.2998 -23.1904 -78.9697 -23.1904h-206.65
c-18.2695 0 -34.7803 -8.12988 -47.0596 -21.3398c12.6396 -49.1797 48.2695 -90.6602 90.7598 -90.6602h45.5195c12.2109 0 24.3105 2.7998 35.6504 8.24023l101.98 61.75c26.9893 12.96 55.79 26.0098 84.8496 26.0098h16.8096
c-0.279297 -1.33984 -0.80957 -2.58008 -0.80957 -4c0 -11.04 8.95996 -20 20 -20s20 8.95996 20 20c0 1.41992 -0.530273 2.66016 -0.80957 4z" />
    <glyph glyph-name="candy-corn" unicode="&#xf6bd;" horiz-adv-x="640" 
d="M187.09 140.86c43.2197 43.21 80.1504 71.04 106.601 88.3496c68.0195 -115.91 122.279 -244.09 85.3994 -281.18l-0.0595703 -0.0605469c-36.9404 -36.9502 -165.061 17.3506 -280.91 85.3301c17.2598 26.5098 45.2295 63.8203 88.9697 107.561zM326 1.0498
c-3.5 19.6406 -13.9902 50.1807 -30.8604 87.8203c-9.25 -8.32031 -18.7695 -17.2002 -28.8096 -27.2402c-10.3799 -10.3799 -19.4697 -20.1699 -28.0205 -29.7002c37.5801 -16.8701 68.0801 -27.3701 87.6904 -30.8799zM277.11 256.78
c-28.1504 -18.3398 -67.1904 -47.8203 -112.65 -93.2803c-45.9795 -45.9805 -75.6201 -85.3896 -93.9102 -113.61c-15.8096 9.73047 -31.2803 19.6006 -46.0098 29.4102c-27.9502 18.6201 -55.7002 44.4902 60.4004 162.891c118.399 116.1 144.27 88.3496 162.89 60.3994
c9.76953 -14.6699 19.5898 -30.0703 29.2803 -45.8096zM480 448c165.81 -1.62012 164.48 -39.54 157.89 -72.4697c-3.45996 -17.29 -7.39941 -35.1201 -11.6797 -53.1006c-32.8701 6.94043 -81.3301 13.7002 -145.62 13.7002c-65.0303 0 -113.85 -6.91016 -146.74 -13.9297
c-4.2998 18.0596 -8.26953 35.9795 -11.7393 53.3301c-6.59082 32.9297 -7.91992 70.8496 157.89 72.4697zM341.62 290.97c30.9395 6.5498 77.0996 13.1504 138.97 13.1504c61.1104 0 106.91 -6.44043 137.851 -12.9102c-33.8701 -130.05 -86.1406 -259.06 -138.44 -259.21
h-0.0898438c-52.2402 0 -104.44 128.99 -138.29 258.97zM479.95 107.04c11.4102 16.3604 25.5898 45.3701 40.2695 83.9199c-12.4199 0.660156 -25.4297 1.11035 -39.6299 1.11035c-14.6699 0 -28.0303 -0.5 -40.8096 -1.19043
c14.6396 -38.5098 28.79 -67.4902 40.1699 -83.8398z" />
    <glyph glyph-name="file-csv" unicode="&#xf6dd;" horiz-adv-x="384" 
d="M224 312c0 -13.2002 10.7998 -24 24 -24h136v-328c0 -13.2998 -10.7002 -24 -24 -24h-336c-13.2998 0 -24 10.7002 -24 24v464c0 13.2998 10.7002 24 24 24h200v-136zM128 168v16c0 4.41992 -3.58008 8 -8 8h-8c-26.5098 0 -48 -21.4902 -48 -48v-32
c0 -26.5098 21.4902 -48 48 -48h8c4.41992 0 8 3.58008 8 8v16c0 4.41992 -3.58008 8 -8 8h-8c-8.83984 0 -16 7.16016 -16 16v32c0 8.83984 7.16016 16 16 16h8c4.41992 0 8 3.58008 8 8zM172.27 64c23.3906 0 42.4004 17.3301 42.3906 38.6201
c0 10.6602 -4.86035 20.9199 -13.3301 28.1396l-21.8896 18.7705c-1.37012 1.17969 -2.12012 2.54004 -2.12012 3.83984c0 3.12012 4.45996 6.62012 10.4102 6.62012h12.2695c4.41992 0 8 3.58008 8 8v16c0 4.41992 -3.58008 8 -8 8h-12.25
c-23.3896 0 -42.4102 -17.3203 -42.4102 -38.6201c0 -10.6602 4.86035 -20.9199 13.3301 -28.1396l21.8896 -18.7705c1.37012 -1.17969 2.12012 -2.54004 2.12012 -3.83984c0 -3.12012 -4.45996 -6.62012 -10.4102 -6.62012h-12.2695c-4.41992 0 -8 -3.58008 -8 -8v-16
c0 -4.41992 3.58008 -8 8 -8h12.2695zM256 184c0 4.41992 -3.58008 8 -8 8h-16c-4.41992 0 -8 -3.58008 -8 -8v-20.7998c0 -35.4805 12.8799 -68.8906 36.2803 -94.0898c3.01953 -3.25 7.26953 -5.11035 11.7197 -5.11035s8.7002 1.86035 11.7197 5.11035
c23.4004 25.1992 36.2803 58.6094 36.2803 94.0898v20.7998c0 4.41992 -3.58008 8 -8 8h-16c-4.41992 0 -8 -3.58008 -8 -8v-20.7998c0 -20.2705 -5.7002 -40.1807 -16 -56.8799c-10.2998 16.71 -16 36.6094 -16 56.8799v20.7998zM377 343c4.5 -4.5 7 -10.5996 7 -16.9004
v-6.09961h-128v128h6.09961c6.40039 0 12.5 -2.5 17 -7z" />
    </font>
</defs>
</svg>
