<?xml version="1.0" standalone="no"?>
<!DOCTYPE svg PUBLIC "-//W3C//DTD SVG 1.1//EN" "http://www.w3.org/Graphics/SVG/1.1/DTD/svg11.dtd" >
<svg xmlns="http://www.w3.org/2000/svg" xmlns:xlink="http://www.w3.org/1999/xlink" version="1.1">
<metadata>
Created by FontForge 20200314 at Mon Oct  5 09:52:14 2020
 By Robert Madole
Copyright (c) Font Awesome
</metadata>
<!-- Font Awesome Pro 5.15.1 by @fontawesome - https://fontawesome.com License - https://fontawesome.com/license (Commercial License) --><defs>
<font id="FontAwesome5Pro-Regular" horiz-adv-x="512" >
  <font-face 
    font-family="Font Awesome 5 Pro Regular"
    font-weight="400"
    font-stretch="normal"
    units-per-em="512"
    panose-1="2 0 5 3 0 0 0 0 0 0"
    ascent="448"
    descent="-64"
    bbox="-0.0101187 -64.0662 640 448.066"
    underline-thickness="25"
    underline-position="-50"
    unicode-range="U+0020-F8FF"
  />
    <missing-glyph />
    <glyph glyph-name="tint" unicode="&#xf043;" horiz-adv-x="352" 
d="M205.22 425.91c46.9902 -158.48 146.78 -200.07 146.78 -311.82c0 -98.4395 -78.7197 -178.09 -176 -178.09s-176 79.6504 -176 178.09c0 111.19 100.01 154.061 146.78 311.82c4.4502 14.8896 16.8398 22.0898 29.1895 22.0898
c12.6406 0 25.2402 -7.53027 29.25 -22.0898zM176 -16c70.5801 0 128 58.3604 128 130.08c0 43.5703 -20.6104 73.0195 -51.7998 117.6c-24.1807 34.5605 -53.0498 75.8301 -76.2002 132.66c-23.0596 -56.54 -51.8896 -97.8496 -76.04 -132.46
c-31.29 -44.8398 -51.96 -74.46 -51.96 -117.79c0 -71.7295 57.4199 -130.09 128 -130.09zM192 48c8.83984 0 16 -7.16016 16 -16s-7.16016 -16 -16 -16c-61.75 0 -112 50.25 -112 112c0 8.83984 7.16016 16 16 16s16 -7.16016 16 -16c0 -44.1104 35.8799 -80 80 -80z" />
    <glyph glyph-name="cut" unicode="&#xf0c4;" horiz-adv-x="448" 
d="M263.39 192l182.261 -182.63c3.11914 -3.12012 3.11914 -8.19043 0 -11.3105c-18.7402 -18.7393 -49.1406 -18.7393 -67.8809 0l-153.949 154.29l-43.1006 -43.1797c7.2002 -13.46 11.2803 -28.8398 11.2803 -45.1699c0 -53.0195 -42.9805 -96 -96 -96
s-96 42.9805 -96 96s42.9805 96 96 96c16.3096 0 31.6602 -4.07031 45.1104 -11.2402l43.1494 43.2402l-43.1494 43.2402c-13.4502 -7.16992 -28.8008 -11.2402 -45.1104 -11.2402c-53.0195 0 -96 42.9805 -96 96s42.9805 96 96 96s96 -42.9805 96 -96
c0 -16.3301 -4.08008 -31.71 -11.2803 -45.1699l43.1006 -43.1797l153.96 154.29c18.7393 18.7393 49.1396 18.7393 67.8799 0c3.12012 -3.12012 3.12012 -8.19043 0 -11.3105zM96 272c26.4697 0 48 21.5303 48 48s-21.5303 48 -48 48s-48 -21.5303 -48 -48
s21.5303 -48 48 -48zM96 16c26.4697 0 48 21.5303 48 48s-21.5303 48 -48 48s-48 -21.5303 -48 -48s21.5303 -48 48 -48z" />
    <glyph glyph-name="magic" unicode="&#xf0d0;" 
d="M497.94 371.72c18.75 -18.75 18.75 -49.1396 -0.0107422 -67.8799l-353.77 -353.78c-9.37012 -9.36914 -21.6602 -14.0596 -33.9404 -14.0596c-12.2793 0 -24.5693 4.69043 -33.9395 14.0596l-62.2207 62.2207c-18.75 18.7393 -18.75 49.1299 0 67.8799l353.78 353.78
c9.37012 9.36914 21.6504 14.0596 33.9404 14.0596c12.2793 0 24.5596 -4.69043 33.9395 -14.0596zM110.23 -16l223.909 223.91l-62.2393 62.2402l-223.9 -223.931zM368.08 241.86l95.9199 95.9199l-62.2197 62.2197h-0.0498047l-95.8906 -95.9004zM432 160
l26.6602 -53.3301l53.3398 -26.6699l-53.3398 -26.6699l-26.6602 -53.3301l-26.6602 53.3301l-53.3398 26.6699l53.3398 26.6699zM224 352l-16 32l-32 16l32 16l16 32l16 -32l32 -16l-32 -16zM80 288l-26.6602 53.3301l-53.3398 26.6699l53.3398 26.6699l26.6602 53.3301
l26.6602 -53.3301l53.3398 -26.6699l-53.3398 -26.6699z" />
    <glyph glyph-name="crop" unicode="&#xf125;" 
d="M496 96c8.83984 0 16 -7.16016 16 -16v-32c0 -8.83984 -7.16016 -16 -16 -16h-80v-80c0 -8.83984 -7.16016 -16 -16 -16h-32c-8.83984 0 -16 7.16016 -16 16v290.75l-146.75 -146.75h114.75v-64h-192c-17.6699 0 -32 14.3301 -32 32v224h-80
c-8.83984 0 -16 7.16016 -16 16v32c0 8.83984 7.16016 16 16 16h80v80c0 8.83984 7.16016 16 16 16h32c8.83984 0 16 -7.16016 16 -16v-290.75l146.75 146.75h-114.75v64h178.75l91.3096 91.3096c6.25 6.25 16.3809 6.25 22.6309 0l22.6191 -22.6191
c6.25 -6.25 6.25 -16.3809 0 -22.6309l-91.3096 -91.3096v-210.75h80z" />
    <glyph glyph-name="taxi" unicode="&#xf1ba;" 
d="M112 168c17.6699 0 32 -14.3301 32 -32s-14.3301 -32 -32 -32s-32 14.3301 -32 32s14.3301 32 32 32zM400 168c17.6699 0 32 -14.3301 32 -32s-14.3301 -32 -32 -32s-32 14.3301 -32 32s14.3301 32 32 32zM328 144c4.41992 0 8 -3.58008 8 -8v-16
c0 -4.41992 -3.58008 -8 -8 -8h-144c-4.41992 0 -8 3.58008 -8 8v16c0 4.41992 3.58008 8 8 8h144zM454.15 232.03c34.0195 -14.7705 57.8496 -48.5801 57.8496 -88.0303v-48c0 -23.6299 -12.9502 -44.0303 -32 -55.1201v-48.8799c0 -13.25 -10.75 -24 -24 -24h-32
c-13.25 0 -24 10.75 -24 24v40h-288v-40c0 -13.25 -10.75 -24 -24 -24h-32c-13.25 0 -24 10.75 -24 24v48.8799c-19.0498 11.0801 -32 31.4902 -32 55.1201v48c0 39.4502 23.8301 73.2598 57.8398 88.0303l15.0303 77.6602c6.57031 33.79 36.2803 58.3096 70.6895 58.3096
h16.4404v16c0 17.6699 14.3301 32 32 32h128c17.6699 0 32 -14.3301 32 -32v-16h16.4404c34.3994 0 64.1191 -24.5195 70.6797 -58.3096zM120 300.56l-11.7197 -60.5596h295.439l-11.7197 60.5596c-2.17969 11.2705 -12.0898 19.4404 -23.5596 19.4404h-224.881
c-11.4697 0 -21.3691 -8.16992 -23.5596 -19.4404zM464 96v48c0 26.4697 -21.5303 48 -48 48h-320c-26.4697 0 -48 -21.5303 -48 -48v-48c0 -8.82031 7.17969 -16 16 -16h384c8.82031 0 16 7.17969 16 16z" />
    <glyph glyph-name="eye-dropper" unicode="&#xf1fb;" 
d="M483.89 419.86c37.4805 -37.4805 37.4805 -98.2607 -0.0195312 -135.73l-77.0898 -77.0898l13.0996 -13.0996c9.37012 -9.37012 9.37012 -24.5703 0 -33.9404l-63.5996 -63.5996c-9.29004 -9.31055 -24.5 -9.44043 -33.9404 0l-16.96 16.96l-126.64 -126.62
c-12 -12 -28.2803 -18.7402 -45.25 -18.7402h-45.4902l-56 -32l-32 32l32 56v45.4902c0 16.9795 6.75 33.2598 18.75 45.2598l126.62 126.62l-16.9805 16.9795c-9.37012 9.37012 -9.37012 24.5703 0 33.9404l63.6006 63.5996c9.29004 9.31055 24.5 9.44043 33.9395 0
l13.1006 -13.0996l77.0898 77.0898c37.46 37.4902 98.25 37.5 135.72 0.0302734l0.0302734 -0.0302734zM144.8 20.6797l126.641 126.62l-60.1201 60.1201l-126.63 -126.62c-3.03027 -3.01953 -4.69043 -7.04004 -4.69043 -11.3096v-53.4902h53.4902
c0.015625 0 0.0332031 -0.00292969 0.0488281 -0.00292969c4.39844 0 8.38184 1.79102 11.2607 4.68262zM449.94 318.06c9.05957 9.07031 14.0596 21.1201 14.0596 33.9307c0 12.8193 -4.99023 24.8701 -14.0596 33.9297l-0.0400391 0.0400391
c-9.05078 9.05957 -21.0908 14.04 -33.9102 14.04c-12.8105 0 -24.8604 -4.99023 -33.9102 -14.0498l-111.04 -111.061l-30.0596 30.0703l-29.6602 -29.6504l128 -128l29.6602 29.6602l-30.0703 30.0605l33.9395 33.9395z" />
    <glyph glyph-name="paint-brush" unicode="&#xf1fc;" 
d="M455.59 448c29.2998 0 56.4102 -21.5195 56.4102 -51.6602c0 -16.8203 -6.7998 -32.9902 -14.4902 -47.96c-109.3 -203.979 -149.55 -259.479 -206.45 -266.49c7.66016 -58.1396 -27.8799 -145.89 -145.06 -145.89c-102.74 0 -146 82.5498 -146 176.5
c11.1699 -7.62988 50.3496 -39.1904 63.0195 -39.1904c7.52051 0 13.9609 4.30078 16.6406 11.3809c21.7295 57.2695 58.7998 76.3594 100.32 81.3193c-10.2109 65.4902 15.75 70.1699 233.68 264.84c11.3096 10.1602 26.1201 17.1504 41.9297 17.1504zM222.08 15.1104
c16.7695 19.1299 20.2998 44.3301 18.2295 60.0996l-1.76953 13.4102l-36.0596 28.5098l-16.4307 -1.95996c-25.9102 -3.09961 -44.7295 -12.3203 -58.5195 -48.6504c-8.98047 -23.71 -29.6504 -40.0693 -54.21 -43.6699c14.0801 -20.7197 36.71 -35.6494 72.6797 -35.6494
c34.2402 0 59.8398 9.38965 76.0801 27.9102zM284.8 132.71c50.0498 6.16016 183.44 250.74 171.32 260.72c-11.8799 9.77051 -231.82 -179.35 -225.561 -219.54l2.44043 -15.6396l34.9297 -27.6201z" />
    <glyph glyph-name="bus" unicode="&#xf207;" 
d="M368 80c-17.6699 0 -32 14.3301 -32 32s14.3301 32 32 32s32 -14.3301 32 -32s-14.3301 -32 -32 -32zM144 80c-17.6699 0 -32 14.3301 -32 32s14.3301 32 32 32s32 -14.3301 32 -32s-14.3301 -32 -32 -32zM488 320c13.25 0 24 -10.7402 24 -24v-80
c0 -13.25 -10.75 -24 -24 -24h-8v-160c0 -17.6699 -14.3301 -32 -32 -32v-32c0 -17.6699 -14.3301 -32 -32 -32h-16c-17.6699 0 -32 14.3301 -32 32v32h-224v-32c0 -17.6699 -14.3301 -32 -32 -32h-16c-17.6699 0 -32 14.3301 -32 32v32c-17.6699 0 -32 14.3301 -32 32v160
h-8c-13.25 0 -24 10.75 -24 24v80c0 13.2598 10.75 24 24 24h8v48c0 44.7998 99.2002 80 224 80s224 -35.2002 224 -80v-48h8zM432 48v128h-352v-128h352zM432 224v64h-352v-64h352zM432 336v26.5703c-14.1797 13.8301 -76.6904 37.4297 -176 37.4297
s-161.82 -23.5996 -176 -37.4297v-26.5703h352z" />
    <glyph glyph-name="bed" unicode="&#xf236;" horiz-adv-x="640" 
d="M168 144c-48.5195 0 -88 39.4805 -88 88s39.4805 88 88 88s88 -39.4805 88 -88s-39.4805 -88 -88 -88zM168 272c-22.0596 0 -40 -17.9404 -40 -40s17.9404 -40 40 -40s40 17.9404 40 40s-17.9404 40 -40 40zM528 320c61.8604 0 112 -50.1396 112 -112v-192
c0 -8.83984 -7.16016 -16 -16 -16h-16c-8.83984 0 -16 7.16016 -16 16v48h-544v-48c0 -8.83984 -7.16016 -16 -16 -16h-16c-8.83984 0 -16 7.16016 -16 16v352c0 8.83984 7.16016 16 16 16h16c8.83984 0 16 -7.16016 16 -16v-256h240v192c0 8.83984 7.16016 16 16 16h224z
M592 112v96c0 35.29 -28.71 64 -64 64h-192v-160h256z" />
    <glyph glyph-name="map" unicode="&#xf279;" horiz-adv-x="576" 
d="M560.02 416c8.4502 0 15.9805 -6.83008 15.9805 -16.0195v-346.32c0 -13.4707 -8.32422 -24.9951 -20.1201 -29.71l-151.83 -52.8105c-6.23242 -2.02832 -12.9023 -3.12305 -19.8076 -3.12305c-7.07324 0 -13.8799 1.15039 -20.2422 3.27344l-172 60.71l-170.05 -62.8398
c-1.99023 -0.790039 -4 -1.16016 -5.95996 -1.16016c-8.45996 0 -15.9902 6.83008 -15.9902 16.0195v346.32c0.00292969 13.4697 8.32617 24.9932 20.1201 29.71l151.83 52.8105c6.43945 2.08984 13.1201 3.13965 19.8096 3.13965
c7.06641 -0.00292969 13.8789 -1.16602 20.2402 -3.28027l172 -60.7197h0.00976562l170.05 62.8398c1.98047 0.790039 4 1.16016 5.95996 1.16016zM224 357.58v-285.97l128 -45.1904v285.97zM48 29.9502l127.36 47.0801l0.639648 0.229492v286.2l-128 -44.5303v-288.979z
M528 65.0801v288.97l-127.36 -47.0693l-0.639648 -0.240234v-286.19z" />
    <glyph glyph-name="pen" unicode="&#xf304;" 
d="M493.26 391.74c24.9902 -24.9902 24.9902 -65.5098 -0.00976562 -90.5098l-74.4902 -74.4902l-34.7402 -34.7402l-243.239 -243.24l-114.141 -12.6094c-0.899414 -0.100586 -1.7998 -0.150391 -2.68945 -0.150391c-14.0703 0 -25.4004 12.2803 -23.7998 26.6602
l12.6992 114.22l243.15 243.14l34.75 34.75l74.4902 74.4902c12.4902 12.4902 28.8701 18.7402 45.25 18.7402s32.7598 -6.25 45.2598 -18.75zM118.75 -5.38965l231.33 231.33l31.0195 31.0195l-60.1396 60.1396l-31.0195 -31.0195l-231.24 -231.24l-7.53027 -67.6895z
M459.31 335.18c6.24023 6.23047 6.24023 16.3799 0 22.6299l-37.5098 37.5107c-4.06934 4.08008 -8.83984 4.68945 -11.3096 4.68945c-2.4707 0 -7.23047 -0.609375 -11.3105 -4.68945l-44.2793 -44.2803l60.1299 -60.1396z" />
    <glyph glyph-name="pen-alt" unicode="&#xf305;" 
d="M493.25 391.74c25 -24.9902 25 -65.5098 0 -90.5098l-74.4902 -74.4902l-34.7402 -34.7402l-162.039 -162.05c-51.165 -51.1562 -119.562 -85.4277 -195.341 -93.7998c-0.90918 -0.100586 -1.7998 -0.150391 -2.68945 -0.150391
c-14.0703 0 -25.4004 12.2803 -23.8105 26.6504l0.0302734 0.229492c8.41895 75.6807 42.6758 143.984 93.7803 195.09l162.06 162.05l7.41992 7.4209l-33.9395 33.9395l-113.141 -113.12c-6.23926 -6.25 -16.3691 -6.25 -22.6191 0l-11.3105 11.3105
c-6.25 6.23926 -6.25 16.3701 0 22.6201l118.79 118.779c15.6104 15.6201 40.9404 15.6201 56.5596 0l39.5908 -39.5898l67.8701 67.8799c12.5 12.4902 28.8799 18.7402 45.2598 18.7402s32.7598 -6.25 45.25 -18.75zM188.03 63.8896l162.05 162.051l7.41992 7.41992
l-60.1396 60.1396l-7.41992 -7.41992l-162.051 -162.05c-37.0098 -37.0107 -62.8799 -84 -74.5996 -134.74c50.75 11.7197 97.7197 37.5801 134.74 74.5996zM459.31 335.18c4.08008 4.07031 4.68066 8.83984 4.68066 11.3105c0 2.46973 -0.610352 7.22949 -4.69043 11.3096
l-37.5098 37.5098c-4.07031 4.08008 -8.83984 4.69043 -11.3096 4.69043c-2.4707 0 -7.23047 -0.610352 -11.3105 -4.69043l-67.8701 -67.8691l11.3105 -11.3105l48.8193 -48.8301z" />
    <glyph glyph-name="feather" unicode="&#xf52d;" 
d="M467.1 403.1c62.5605 -62.5498 64.8506 -161.68 -25.7598 -252.3l-85.7598 -85.75c-50.0898 -50.0898 -120.94 -65.5693 -178.13 -65.5693c-28.4502 0 -53.4404 3.84961 -70.8799 9.14941l-65.6006 -65.5996c-9.37012 -9.37012 -24.5693 -9.37012 -33.9395 0
s-9.37012 24.5693 0 33.9395l65.6602 65.6602c-16 52.4502 -18.6904 173.9 56.3691 248.95l85.75 85.7598c48.8008 48.8105 100.08 70.6602 146.78 70.6602c40 0 76.6504 -16.04 105.51 -44.9004zM147.37 49.4297c8.79004 -1.08008 18.6699 -1.89941 30.0801 -1.88965
c33.7402 0 95.9902 6.62988 140.609 48.46h-124.119zM350.58 128l56.7803 56.79c2.37988 2.37988 4.15918 4.80957 6.38965 7.20996h-123.81l-64 -64h124.64zM438.89 224c34.2402 52.8701 33.3906 105.96 -5.7793 145.12
c-20.1602 20.1602 -44.9004 30.8203 -71.5303 30.8203c-36.7705 0 -75.7803 -19.5605 -112.8 -56.5801c-67.04 -67.0508 -85.75 -85.7607 -85.75 -85.7607c-49.8105 -49.8096 -54.79 -128.18 -49.5205 -174.149l197 197c9.37012 9.37012 24.5703 9.37012 33.9404 0
s9.37012 -24.5703 0 -33.9404l-22.5098 -22.5098h116.949z" />
    <glyph glyph-name="archway" unicode="&#xf557;" horiz-adv-x="576" 
d="M560 400h-16v-416h16c8.83984 0 16 -7.16016 16 -16v-16c0 -8.83984 -7.16016 -16 -16 -16h-159.98c-8.83984 0 -16 7.16016 -16 16v16h-0.0195312v160c0 53.0195 -42.9805 96 -96 96s-96 -42.9805 -96 -96v-176c0 -8.83984 -7.16016 -16 -16 -16h-159.98
c-8.83984 0 -16 7.16016 -16 16v16c0 8.83984 7.16016 16 16 16h15.9805v416h-16c-8.83984 0 -16 7.16016 -16 16v16c0 8.83984 7.16016 16 16 16h544c8.83984 0 16 -7.16016 16 -16v-16c0 -8.83984 -7.16016 -16 -16 -16zM496 400h-416v-40h416v40zM432 -16h64v328h-416
v-328h64v144c0 79.4004 64.5996 144 144 144s144 -64.5996 144 -144v-144z" />
    <glyph glyph-name="atlas" unicode="&#xf558;" horiz-adv-x="448" 
d="M224 128c-66.2695 0 -120 53.7305 -120 120c0 66.2803 53.7305 120 120 120c66.2803 0 120 -53.7197 120 -120c0 -66.2695 -53.7197 -120 -120 -120zM310.38 264c-5.0498 27.3203 -22.8096 49.9805 -46.8604 62.1904c6.52051 -17.2002 10.8809 -38.5107 12.2705 -62.1904
h34.5898zM275.79 232c-1.38965 -23.6797 -5.74023 -44.9805 -12.2705 -62.1904c24.04 12.21 41.8105 34.8701 46.8604 62.1904h-34.5898zM224 333.76c-6.91016 -8.37012 -17.5098 -32.3896 -19.9697 -69.7598h39.9297c-2.4502 37.3701 -13.0498 61.3896 -19.96 69.7598z
M243.96 232h-39.9199c2.4502 -37.3701 13.0498 -61.3896 19.96 -69.7598c6.91016 8.37012 17.5098 32.3896 19.96 69.7598zM184.47 326.19c-24.04 -12.21 -41.7998 -34.8701 -46.8594 -62.1904h34.5898c1.39941 23.6797 5.75 44.9902 12.2695 62.1904zM172.21 232h-34.5898
c5.05957 -27.3203 22.8203 -49.9805 46.8604 -62.1904c-6.52051 17.21 -10.8701 38.5107 -12.2705 62.1904zM448 64c0 -7.7998 -5.5 -14.2002 -12.9004 -15.7002c-4.19922 -13 -4.19922 -51.5996 0 -64.5996c7.30078 -1.40039 12.9004 -7.90039 12.9004 -15.7002v-16
c0 -8.7998 -7.2002 -16 -16 -16h-352c-44.2002 0 -80 35.7998 -80 80v352c0 44.2002 35.7998 80 80 80h352c8.7998 0 16 -7.2002 16 -16v-368zM394 -16c-2.7002 17.2998 -2.7002 46.7002 0 64h-314c-17.5996 0 -32 -14.4004 -32 -32c0 -17.7002 14.2998 -32 32 -32h314z
M400 96v304h-320c-17.7002 0 -32 -14.2998 -32 -32v-278.7c9.7998 4.2998 20.5996 6.7002 32 6.7002h320z" />
    <glyph glyph-name="backspace" unicode="&#xf55a;" horiz-adv-x="640" 
d="M469.65 266.35c6.25 -6.25 6.25 -16.3799 0.00976562 -22.6299l-51.7197 -51.7197l51.7197 -51.7197c6.25 -6.25 6.25 -16.3799 0 -22.6299l-11.3105 -11.3105c-6.25 -6.25 -16.3799 -6.25 -22.6299 0l-51.7197 51.7197l-51.7197 -51.7197
c-6.25 -6.25 -16.3799 -6.25 -22.6299 0l-11.3105 11.3105c-6.25 6.25 -6.25 16.3799 0 22.6299l51.7197 51.7197l-51.7197 51.7197c-6.25 6.25 -6.25 16.3799 0 22.6299l11.3105 11.3105c6.25 6.25 16.3799 6.25 22.6299 0l51.7197 -51.7197l51.71 51.7197
c6.25 6.25 16.3799 6.25 22.6299 0zM576 384c35.3496 0 64 -28.6504 64 -64v-256c0 -35.3496 -28.6504 -64 -64 -64h-370.75c-16.9697 0 -33.25 6.75 -45.25 18.75l-150.63 150.63c-12.5 12.4902 -12.5 32.75 0 45.25l150.63 150.63c12 12 28.2803 18.7402 45.2598 18.7402
h370.74zM592 64v256c0 8.82031 -7.17969 16 -16 16h-370.75c-4.26953 0 -8.29004 -1.66992 -11.3096 -4.69043l-139.311 -139.31l139.32 -139.31c3.01953 -3.03027 7.04004 -4.69043 11.3096 -4.69043h370.74c8.82031 0 16 7.17969 16 16z" />
    <glyph glyph-name="bezier-curve" unicode="&#xf55b;" horiz-adv-x="640" 
d="M576 272c-26.7998 0 -49.4502 16.6104 -58.9404 40h-80.0498c64.3105 -37.7803 108.79 -105.52 114.181 -184h24.8096c17.6699 0 32 -14.3301 32 -32v-96c0 -17.6699 -14.3301 -32 -32 -32h-96c-17.6699 0 -32 14.3301 -32 32v96c0 17.6699 14.3301 32 32 32h23.1904
c-5.79004 66.7803 -47.3906 123.33 -105.471 150.54c-4.0498 -12.9199 -15.4502 -22.54 -29.7197 -22.54h-96c-14.2695 0 -25.6699 9.62012 -29.7197 22.54c-58.0801 -27.21 -99.6807 -83.7598 -105.471 -150.54h23.1904c17.6699 0 32 -14.3301 32 -32v-96
c0 -17.6699 -14.3301 -32 -32 -32h-96c-17.6699 0 -32 14.3301 -32 32v96c0 17.6699 14.3301 32 32 32h24.8096c5.39062 78.4805 49.8701 146.22 114.19 184h-80.0498c-9.5 -23.3896 -32.1504 -40 -58.9502 -40c-35.3496 0 -64 28.6504 -64 64s28.6504 64 64 64
c26.7998 0 49.4502 -16.6104 58.9502 -40h117.05v24c0 17.6699 14.3301 32 32 32h96c17.6699 0 32 -14.3301 32 -32v-24h117.05c9.5 23.3896 32.1504 40 58.9502 40c35.3496 0 64 -28.6504 64 -64s-28.6504 -64 -64 -64zM560 337.59v-3.17969l0.620117 -2.40039
c1.83008 -7.06934 8.16016 -12.0098 15.3799 -12.0098c8.82031 0 16 7.17969 16 16s-7.17969 16 -16 16c-7.21973 0 -13.5498 -4.94043 -15.3799 -12.0098zM80 334.41v3.18945l-0.620117 2.39062c-1.83008 7.06934 -8.16016 12.0098 -15.3799 12.0098
c-8.82031 0 -16 -7.17969 -16 -16s7.17969 -16 16 -16c7.21973 0 13.5498 4.94043 15.3799 12.0098zM144 80h-64v-64h64v64zM352 304v64h-64v-64h64zM560 80h-64v-64h64v64z" />
    <glyph glyph-name="bong" unicode="&#xf55c;" horiz-adv-x="448" 
d="M443.31 230.63c6.25 -6.25 6.25 -16.3799 0 -22.6299l-11.2998 -11.3203c-6.25 -6.25 -16.3799 -6.25 -22.6299 0l-9.37988 9.37988l-43.4404 -43.4395c17.3604 -28.8105 27.4404 -62.5 27.4404 -98.6201c0 -43.7998 -14.79 -84.0703 -39.5303 -116.35
c-5.81934 -7.61035 -15.21 -11.6504 -24.79 -11.6504h-255.37c-9.5791 0 -18.9697 4.04004 -24.79 11.6504c-24.7197 32.2793 -39.5195 72.54 -39.5195 116.35c0 71.0303 38.6699 132.9 96 166.11v169.93l-15.9697 -0.0205078
c-8.85059 -0.00976562 -16.0303 7.16016 -16.0205 16.0107l0.0400391 15.7295c0.00976562 8.82031 7.16016 15.9707 15.9805 15.9805l223.939 0.259766c8.85059 0.00976562 16.0303 -7.16992 16.0205 -16.0195l-0.0400391 -15.7207
c-0.00976562 -8.81934 -7.16016 -15.9697 -15.9805 -15.9795l-15.9697 -0.0205078v-170.16c14.1201 -8.17969 27.0898 -18.1396 38.6504 -29.5098l39.4092 39.4102l-9.37988 9.37988c-6.25 6.25 -6.25 16.3799 0 22.6299l11.3105 11.3105c6.25 6.25 16.3799 6.25 22.6299 0z
M120.06 188.57c-24.8096 -14.3701 -44.1094 -35.7305 -56.5596 -60.5703h257c-12.4404 24.8398 -31.75 46.2002 -56.5596 60.5703l-23.9404 13.8701v197.569h-96v-197.569zM311.53 -16c16.04 23.75 24.4697 51.2305 24.46 80c0 5.38965 -0.470703 10.71 -1.07031 16h-285.85
c-0.600586 -5.29004 -1.07031 -10.6104 -1.07031 -16c0 -28.7695 8.42969 -56.25 24.4697 -80h239.061z" />
    <glyph glyph-name="brush" unicode="&#xf55d;" horiz-adv-x="384" 
d="M352 448c17.6699 0 32 -14.3301 32 -32v-288c0 -35.3496 -28.6504 -64 -64 -64h-48v-48c0 -44.1797 -35.8203 -80 -80 -80s-80 35.8203 -80 80v48h-48c-35.3496 0 -64 28.6504 -64 64v288c0 17.6699 14.3301 32 32 32h320zM336 400h-288v-176h288v176zM320 112
c8.82031 0 16 7.17969 16 16v48h-288v-48c0 -8.82031 7.17969 -16 16 -16h96v-96c0 -17.6396 14.3604 -32 32 -32s32 14.3604 32 32v96h96z" />
    <glyph glyph-name="bus-alt" unicode="&#xf55e;" 
d="M144 144c17.6699 0 32 -14.3301 32 -32s-14.3301 -32 -32 -32s-32 14.3301 -32 32s14.3301 32 32 32zM488 320c13.25 0 24 -10.7402 24 -24v-80c0 -13.25 -10.75 -24 -24 -24h-8v-160c0 -17.6699 -14.3301 -32 -32 -32v-32c0 -17.6699 -14.3301 -32 -32 -32h-16
c-17.6699 0 -32 14.3301 -32 32v32h-224v-32c0 -17.6699 -14.3301 -32 -32 -32h-16c-17.6699 0 -32 14.3301 -32 32v32c-17.6699 0 -32 14.3301 -32 32v160h-8c-13.25 0 -24 10.75 -24 24v80c0 13.2598 10.75 24 24 24h8v48c0 44.7998 99.2002 80 224 80
s224 -35.2002 224 -80v-48h8zM80 288v-64h152v64h-152zM432 48v128h-352v-128h352zM432 224v64h-152v-64h152zM432 336v26.5703c-14.1797 13.8301 -76.6904 37.4297 -176 37.4297s-161.82 -23.5996 -176 -37.4297v-26.5703h96c0 17.6699 14.3301 32 32 32h96
c17.6699 0 32 -14.3301 32 -32h96zM368 80c-17.6699 0 -32 14.3301 -32 32s14.3301 32 32 32s32 -14.3301 32 -32s-14.3301 -32 -32 -32z" />
    <glyph glyph-name="cannabis" unicode="&#xf55f;" horiz-adv-x="544" 
d="M516.88 135.92c16.5801 -8.0498 27.1104 -24.7695 27.1201 -43.0898s-10.4902 -35.0498 -27.0596 -43.1201c-2.1709 -1.0498 -46.2803 -22.2295 -105.46 -28.6699c1.46973 -13.8301 -3.18066 -27.8301 -13.0908 -38.1504
c-9.25977 -9.64941 -21.9795 -14.8896 -35.0293 -14.8896c-4.4707 0 -8.98047 0.610352 -13.4004 1.87988c-3.66992 1.0498 -25.8301 7.77051 -53.96 22.2705v-40.1504c0 -8.83984 -7.16016 -16 -16 -16h-16c-8.83984 0 -16 7.16016 -16 16v40.1504
c-28.1299 -14.5 -50.29 -21.2207 -53.96 -22.2705c-4.42969 -1.25977 -8.92969 -1.87988 -13.4004 -1.87988c-13.0498 0 -25.7695 5.24023 -35.0293 14.8896c-8.26953 8.58789 -13.3574 20.2227 -13.3574 33.0742c0 1.71387 0.0908203 3.4082 0.266602 5.07617
c-59.1797 6.42969 -103.289 27.6201 -105.46 28.6699c-16.5693 8.07031 -27.0693 24.7998 -27.0596 43.1201s10.54 35.04 27.1201 43.0898c2.16016 1.0498 11.8994 5.63965 27.1895 10.96c-39 57.6104 -52.25 110.92 -52.9795 113.95
c-3.84961 15.9502 0.780273 32.7402 12.2803 44.5303c9.20996 9.44922 21.7998 14.6396 34.7793 14.6396c3.32031 -0.000976562 6.52637 -0.334961 9.66016 -0.969727c3.10059 -0.620117 55.54 -11.5605 114.37 -43.4707c14.4805 85.8203 57.5996 148.601 59.79 151.74
c9.03027 12.96 23.9004 20.7002 39.79 20.7002s30.7598 -7.74023 39.7998 -20.6904c2.19043 -3.13965 45.3105 -65.9297 59.79 -151.739c58.8301 31.9102 111.271 42.8398 114.37 43.4697c3.20996 0.650391 6.4502 0.969727 9.66016 0.969727
c12.9795 0 25.5703 -5.18945 34.7803 -14.6396c11.4893 -11.7998 16.1191 -28.5898 12.2695 -44.54c-0.729492 -3.03027 -13.9697 -56.3398 -52.9795 -113.95c15.29 -5.32031 25.0293 -9.91016 27.1895 -10.96zM378.22 67.2002c64.8398 0 117.4 25.5996 117.4 25.5996
s-40.8799 19.8506 -94.9697 24.5605c0.849609 0.769531 1.56934 1.2998 2.42969 2.08984c71.5498 65.5303 92.54 152.55 92.54 152.55s-95.0205 -19.2197 -166.57 -84.75c-0.939453 -0.849609 -1.56934 -1.57031 -2.47949 -2.41016
c0.849609 10.8301 1.33008 22.7305 1.33008 35.96c0 98.9697 -55.9004 179.2 -55.9004 179.2s-55.9004 -80.2305 -55.9004 -179.2c0 -13.2402 0.480469 -25.1299 1.33008 -35.96c-0.910156 0.839844 -1.5498 1.56055 -2.47949 2.41016
c-71.5498 65.5303 -166.57 84.75 -166.57 84.75s20.9902 -87.0195 92.54 -152.55c0.860352 -0.790039 1.58008 -1.32031 2.42969 -2.08984c-54.0898 -4.7207 -94.9697 -24.5605 -94.9697 -24.5605s52.5605 -25.5996 117.4 -25.5996
c17.2998 0 31.1299 0.870117 42.4199 2.33008c0.219727 -0.120117 0.399414 -0.160156 0.620117 -0.270508c-19.7607 -28.8096 -28.1807 -53.2598 -28.1807 -53.2598s47.9902 13.7305 91.3604 48.4805c43.3604 -34.75 91.3604 -48.4805 91.3604 -48.4805
s-8.41016 24.4502 -28.1807 53.2598c0.220703 0.120117 0.400391 0.160156 0.620117 0.270508c11.29 -1.4707 25.1201 -2.33008 42.4199 -2.33008z" />
    <glyph glyph-name="concierge-bell" unicode="&#xf562;" 
d="M496 48c8.83984 0 16 -7.16016 16 -16v-16c0 -8.83984 -7.16016 -16 -16 -16h-480c-8.83984 0 -16 7.16016 -16 16v16c0 8.83984 7.16016 16 16 16h16v48c0 112.82 83.4902 205.89 192 221.46v18.54h-48c-8.83984 0 -16 7.16016 -16 16v16c0 8.83984 7.16016 16 16 16
h160c8.83984 0 16 -7.16016 16 -16v-16c0 -8.83984 -7.16016 -16 -16 -16h-48v-18.54c108.51 -15.5703 192 -108.64 192 -221.46v-48h16zM432 48v48c0 97.0498 -78.9502 176 -176 176s-176 -78.9502 -176 -176v-48h352z" />
    <glyph glyph-name="cookie" unicode="&#xf563;" 
d="M352 128c17.6699 0 32 -14.3301 32 -32s-14.3301 -32 -32 -32s-32 14.3301 -32 32s14.3301 32 32 32zM320 288c-17.6699 0 -32 14.3301 -32 32s14.3301 32 32 32s32 -14.3301 32 -32s-14.3301 -32 -32 -32zM192 256c0 -17.6699 -14.3301 -32 -32 -32s-32 14.3301 -32 32
s14.3301 32 32 32s32 -14.3301 32 -32zM192 128c17.6699 0 32 -14.3301 32 -32s-14.3301 -32 -32 -32s-32 14.3301 -32 32s14.3301 32 32 32zM288 224c17.6699 0 32 -14.3301 32 -32s-14.3301 -32 -32 -32s-32 14.3301 -32 32s14.3301 32 32 32zM510.37 193.21
c1.07715 -6.79883 1.55371 -13.7725 1.55371 -20.8721c0 -21.6123 -5.18359 -42.0244 -14.374 -60.0576l-35.0996 -68.8701c-12.7021 -24.9277 -32.8652 -45.0938 -57.79 -57.7998l-69.1201 -35.21c-18.6299 -9.5 -39.1602 -14.3809 -59.8799 -14.3809
c-6.87988 0 -13.7705 0.530273 -20.6299 1.62012l-76.7002 12.1406c-28.1211 4.45801 -53.4453 17.7891 -72.71 37.0498l-54.7598 54.75c-19.3223 19.3281 -32.6934 44.7363 -37.1602 72.9502l-12.0801 76.2695c-1.07715 6.79883 -1.55371 13.7734 -1.55371 20.873
c0 21.6152 5.18359 42.0303 14.374 60.0674l35.0996 68.8701c12.6992 24.9287 32.8633 45.0957 57.79 57.7998l69.1201 35.21c18.6396 9.5 39.1699 14.3799 59.8896 14.3799c7.05859 0 13.8623 -0.554688 20.6201 -1.62988l76.7002 -12.1504
c27.5303 -4.34961 52.9795 -17.3301 72.71 -37.0498l54.7598 -54.75c19.3213 -19.3281 32.6924 -44.7363 37.1602 -72.9502zM454.78 134.06c8.16992 16.0205 10.9893 33.8809 8.18945 51.6406l-12.0801 76.2598c-2.80957 17.75 -11 33.8301 -23.6895 46.5205l-54.7598 54.75
c-12.6406 12.6396 -28.6406 20.7998 -46.2705 23.5898l-76.7002 12.1494c-4.33008 0.680664 -8.73926 1.03027 -13.1201 1.03027c-13.1797 0 -26.3496 -3.16992 -38.0996 -9.15039l-69.1201 -35.21c-15.9502 -8.12012 -28.6797 -20.8496 -36.8096 -36.8193
l-35.1006 -68.8799c-8.16992 -16.0205 -10.9893 -33.8809 -8.17969 -51.6406l12.0801 -76.2695c2.80957 -17.7402 11 -33.8301 23.6895 -46.5107l54.7607 -54.7598c12.6396 -12.6396 28.6494 -20.7998 46.2793 -23.5898l76.6904 -12.1396
c4.30176 -0.676758 8.62988 -1.02734 13.1201 -1.03027c13.1699 0 26.3398 3.16992 38.0898 9.15039l69.1201 35.21c15.9502 8.12012 28.6797 20.8496 36.8096 36.8193z" />
    <glyph glyph-name="cookie-bite" unicode="&#xf564;" 
d="M352 128c17.6699 0 32 -14.3301 32 -32s-14.3301 -32 -32 -32s-32 14.3301 -32 32s14.3301 32 32 32zM192 256c0 -17.6699 -14.3301 -32 -32 -32s-32 14.3301 -32 32s14.3301 32 32 32s32 -14.3301 32 -32zM192 128c17.6699 0 32 -14.3301 32 -32s-14.3301 -32 -32 -32
s-32 14.3301 -32 32s14.3301 32 32 32zM288 224c17.6699 0 32 -14.3301 32 -32s-14.3301 -32 -32 -32s-32 14.3301 -32 32s14.3301 32 32 32zM510.52 192.18c4.10059 -27.3301 -0.349609 -55.2695 -12.9092 -79.8994l-35.1006 -68.8799
c-12.6963 -24.9346 -32.8604 -45.1055 -57.79 -57.8105l-69.1299 -35.2197c-18.6396 -9.5 -39.1699 -14.3799 -59.8896 -14.3799c-6.87988 0 -13.7803 0.529297 -20.6406 1.62012l-76.71 12.1396c-28.123 4.45703 -53.4482 17.793 -72.71 37.0596l-54.7695 54.7607
c-19.3203 19.333 -32.6904 44.7441 -37.1602 72.96l-12.0801 76.2793c-1.07617 6.7998 -1.55273 13.7734 -1.55273 20.874c0 21.6182 5.18262 42.0361 14.373 60.0762l35.0996 68.8799c12.6963 24.9346 32.8613 45.1055 57.79 57.8105l69.1299 35.2197
c18.6104 9.48047 39.1104 14.3301 59.79 14.3301c6.64062 0 13.3105 -0.5 19.9307 -1.50977c0.859375 -69.96 57.6895 -126.45 127.859 -126.45c0 -70.1699 56.5 -127.01 126.47 -127.86zM454.84 134.08c2.80273 5.48535 5.05859 11.4385 6.60059 17.54
c-58.8906 17.8203 -104.99 65.8398 -120.11 125.689c-59.8398 15.1309 -107.86 61.21 -125.69 120.091c-6.01953 -1.52051 -11.8594 -3.70996 -17.3799 -6.52051l-69.1299 -35.2197c-15.9395 -8.12012 -28.6699 -20.8604 -36.8096 -36.8301l-35.1006 -68.8799
c-8.16992 -16.0205 -10.9893 -33.8701 -8.17969 -51.6406l12.0801 -76.2695c2.80957 -17.75 11 -33.8301 23.6895 -46.5205l54.7705 -54.7598c12.6396 -12.6396 28.6396 -20.7998 46.2803 -23.5898l76.71 -12.1396c4.33008 -0.680664 8.75 -1.03027 13.1299 -1.03027
c13.1797 0 26.3594 3.16992 38.0996 9.15039l69.1299 35.2197c15.9404 8.12988 28.6699 20.8604 36.8105 36.8301z" />
    <glyph glyph-name="crop-alt" unicode="&#xf565;" 
d="M160 432v-336h160v-64h-192c-17.6699 0 -32 14.3301 -32 32v224h-80c-8.83984 0 -16 7.16016 -16 16v32c0 8.83984 7.16016 16 16 16h80v80c0 8.83984 7.16016 16 16 16h32c8.83984 0 16 -7.16016 16 -16zM496 96c8.83984 0 16 -7.16016 16 -16v-32
c0 -8.83984 -7.16016 -16 -16 -16h-80v-80c0 -8.83984 -7.16016 -16 -16 -16h-32c-8.83984 0 -16 7.16016 -16 16v336h-160v64h192c17.6699 0 32 -14.3301 32 -32v-224h80z" />
    <glyph glyph-name="digital-tachograph" unicode="&#xf566;" horiz-adv-x="640" 
d="M608 352c17.6699 0 32 -14.3301 32 -32v-256c0 -17.6699 -14.3301 -32 -32 -32h-576c-17.6699 0 -32 14.3301 -32 32v256c0 17.6699 14.3301 32 32 32h576zM592 80v224h-544v-224h544zM96 208c-8.83984 0 -16 7.16016 -16 16v32c0 8.83984 7.16016 16 16 16h192
c8.83984 0 16 -7.16016 16 -16v-32c0 -8.83984 -7.16016 -16 -16 -16h-192zM88 104c-4.41992 0 -8 3.58008 -8 8v8c0 4.41992 3.58008 8 8 8h208c4.41992 0 8 -3.58008 8 -8v-8c0 -4.41992 -3.58008 -8 -8 -8h-208zM344 104c-4.41992 0 -8 3.58008 -8 8v8
c0 4.41992 3.58008 8 8 8h208c4.41992 0 8 -3.58008 8 -8v-8c0 -4.41992 -3.58008 -8 -8 -8h-208zM96 184h16c4.41992 0 8 -3.58008 8 -8v-16c0 -4.41992 -3.58008 -8 -8 -8h-16c-4.41992 0 -8 3.58008 -8 8v16c0 4.41992 3.58008 8 8 8zM154.67 184h16
c4.41992 0 8 -3.58008 8 -8v-16c0 -4.41992 -3.58008 -8 -8 -8h-16c-4.41992 0 -8 3.58008 -8 8v16c0 4.41992 3.58008 8 8 8zM213.33 184h16c4.41992 0 8 -3.58008 8 -8v-16c0 -4.41992 -3.58008 -8 -8 -8h-16c-4.41992 0 -8 3.58008 -8 8v16c0 4.41992 3.58008 8 8 8z
M272 184h16c4.41992 0 8 -3.58008 8 -8v-16c0 -4.41992 -3.58008 -8 -8 -8h-16c-4.41992 0 -8 3.58008 -8 8v16c0 4.41992 3.58008 8 8 8z" />
    <glyph glyph-name="drafting-compass" unicode="&#xf568;" 
d="M450.33 151.64l61.6699 -114.56l-7.9502 -65.8105c-1.46973 -12.5693 -8.59961 -23.46 -19.5693 -29.8291c-6.2002 -3.59082 -13.0508 -5.4209 -19.9404 -5.4209c-5.29004 0 -10.6201 1.08008 -15.7002 3.25l-61.4795 26.3408l-62.0508 115.3
c-22.3994 -5.7998 -45.6592 -8.87012 -69.3096 -8.87012c-23.6299 0 -46.7998 3.2998 -69.1699 9.12988l-62.2002 -115.57l-61.4395 -26.3301c-5.08008 -2.18945 -10.4404 -3.26953 -15.7402 -3.26953c-6.87988 0 -13.7402 1.83008 -19.9404 5.41992
c-10.9697 6.37988 -18.0996 17.2705 -19.5996 29.8896l-7.91016 65.75l62.04 115.25c-14.3799 13.7803 -27.8896 28.5205 -39.0596 45.4404c-5.02051 7.59961 -2.23047 18.0596 5.63965 22.6201l13.79 8c7.38965 4.29004 16.54 1.76953 21.29 -5.33984
c6.51953 -9.75 13.9102 -18.7002 21.7598 -27.1904l76.2705 141.71c-0.720703 4.75 -1.4502 9.50977 -1.4502 14.46c0 53.0098 42.8594 95.9902 95.7197 95.9902s95.7197 -42.9805 95.7305 -95.9902c0 -4.9502 -0.730469 -9.70996 -1.4502 -14.46l76.2998 -141.76
c7.80957 8.54004 15.21 17.4902 21.7295 27.2402c4.75 7.10938 13.9004 9.62012 21.29 5.33984l13.79 -8c7.87012 -4.56055 10.6602 -15.0205 5.64062 -22.6201c-11.1904 -16.96 -24.3799 -32.1904 -38.7002 -46.1104zM256 400c-26.4297 0 -47.8604 -21.4902 -47.8604 -48
s21.4307 -48 47.8604 -48s47.8604 21.4902 47.8604 48s-21.4307 48 -47.8604 48zM90.4805 3.15039l138.329 257.029l-0.149414 0.280273c-15.6602 4.70996 -29.7705 12.96 -40.9297 24.3701l-138.381 -257.15l4.83008 -40.0898zM256 120.02
c15.4902 0 30.6699 1.98047 45.5596 5.01074l-45.5596 84.6494l-45.5801 -84.6895c14.8701 -3.12012 30.0801 -4.9707 45.5801 -4.9707zM283.18 260.19l64.8506 -120.5c14.6602 6.40918 28.7598 14.0293 41.7998 23.2998l-65.5703 121.85
c-11.1602 -11.4102 -25.2598 -19.6602 -40.9297 -24.3701zM457.82 -12.4102l4.83008 40.0801l-50.0605 93.0303c-13.2295 -8.99023 -27.2695 -16.6299 -41.8301 -23.2402l50.7598 -94.3096z" />
    <glyph glyph-name="drum-steelpan" unicode="&#xf56a;" horiz-adv-x="576" 
d="M288 416c159.06 0 288 -57.3096 288 -128v-192c0 -70.6904 -128.94 -128 -288 -128s-288 57.3096 -288 128v192c0 70.6904 128.94 128 288 128zM288 368c-24.3096 0 -47.75 -1.23047 -69.8701 -3.46973l11.5 -44.71c4.50977 -17.5508 30.7002 -31.8203 58.3701 -31.8203
s53.8604 14.2695 58.3701 31.8203l11.5 44.71c-22.1201 2.23926 -45.5605 3.46973 -69.8701 3.46973zM229.62 272.45c-2.90039 -21.79 -11.7598 -42.1104 -24.8701 -59.4004c25.9697 -3.20996 53.9297 -5.0498 83.25 -5.0498c28.9697 0 56.6104 1.7998 82.3203 4.94043
c-13.1504 17.0693 -21.8203 37.25 -24.6406 59.0098c-16.21 -10.0801 -36.6602 -15.9502 -57.6797 -15.9502c-21.3398 0 -42.0498 6.08008 -58.3799 16.4502zM174.51 358.49c-75.2998 -13.5 -126.51 -39.9902 -126.51 -70.4902c0 -28.0898 43.5098 -52.75 109.2 -67.0303
c26.96 20.8604 40.1494 56.6699 30.3301 91.4404zM528 96v121.3c-51.5898 -34.5195 -139.77 -57.2998 -240 -57.2998s-188.41 22.7803 -240 57.2998v-121.3c0 -27.4697 93.46 -80 240 -80s240 52.5303 240 80zM418.16 220.85c66.04 14.25 109.84 38.9707 109.84 67.1504
c0 30.8701 -52.54 57.6104 -129.37 70.9502l-12.1895 -52.46c-5.02051 -21.6104 -1.33008 -43.8799 10.3994 -62.7002c5.66992 -9.08984 12.9404 -16.7803 21.3203 -22.9404z" />
    <glyph glyph-name="feather-alt" unicode="&#xf56b;" 
d="M71.46 160.39c25.4102 249.41 388.82 284.051 440.54 287.61c-3.55957 -51.7197 -38.2002 -415.14 -287.61 -440.54c-41.9492 -4.84961 -84.1396 -7.25977 -126.37 -7.37988l-57.0498 -57.0498c-9.37012 -9.37012 -24.5693 -9.37012 -33.9395 0
s-9.37012 24.5693 0 33.9395l57.0498 57.0498c0.129883 42.2305 2.53027 84.4209 7.37988 126.37zM218.88 55.1396c39.54 4.03027 72.54 19.1406 100.43 40.8604h-125.369l-46.3701 -46.3701c24.0098 1.15039 47.8994 2.7998 71.3096 5.50977zM352.81 128
c16.71 19.2402 31.1406 40.8896 43.25 64h-106.119l-64 -64h126.869zM321.94 224h89.1699c25.8398 60.2402 39.4795 124.19 46.3701 169.49c-107.711 -16.3604 -321.15 -69.8906 -338.261 -237.95c-2.75 -23.8301 -4.41992 -47.8701 -5.58008 -71.96l187.9 187.9
c9.37012 9.36914 24.5703 9.36914 33.9404 0c9.36914 -9.37012 9.36914 -24.5703 0 -33.9404z" />
    <glyph glyph-name="fill" unicode="&#xf575;" 
d="M502.63 230.94c12.4902 -12.5 12.4902 -32.75 -0.0195312 -45.2607l-221.57 -221.569c-18.7402 -18.75 -43.2998 -28.1201 -67.8701 -28.1201c-24.5596 0 -49.1299 9.37988 -67.8701 28.1201l-117.189 117.189c-37.4902 37.4902 -37.4902 98.2705 0 135.75l100.46 100.44
l-91.8799 91.8799c-6.25 6.25 -6.25 16.3799 0 22.6299l11.2998 11.3096c6.25 6.25 16.3799 6.25 22.6299 0l91.8799 -91.8691l87.1904 87.1895c6.23926 6.25 14.4297 9.37012 22.6191 9.37012c0.0107422 0 0.0244141 0.00488281 0.0351562 0.00488281
c8.82129 0 16.8125 -3.58496 22.5957 -9.375zM247.11 -1.9502l113.939 113.95h-295.75l113.95 -113.95c9.05957 -9.05957 21.1104 -14.0498 33.9297 -14.0498c12.8203 0 24.8701 4.99023 33.9307 14.0498zM409.06 160l48.3105 48.3096l-185.061 185.061l-75.8691 -75.8701
l69.8994 -69.9004c9.37012 -9.36914 9.37012 -24.5693 0 -33.9395c-9.37988 -9.37012 -24.5703 -9.37012 -33.9395 0l-69.9004 69.8994l-100.45 -100.449c-6.43945 -6.44043 -10.71 -14.4404 -12.71 -23.1104h359.72z" />
    <glyph glyph-name="fill-drip" unicode="&#xf576;" horiz-adv-x="576" 
d="M512 128c0 0 64 -92.6504 64 -128s-28.6602 -64 -64 -64s-64 28.6504 -64 64s64 128 64 128zM502.63 230.94c12.4902 -12.5 12.4902 -32.75 -0.0195312 -45.2607l-221.57 -221.569c-18.7402 -18.75 -43.2998 -28.1201 -67.8701 -28.1201
c-24.5596 0 -49.1299 9.37988 -67.8701 28.1201l-117.189 117.189c-37.4902 37.4902 -37.4902 98.2705 0 135.75l100.46 100.44l-91.8799 91.8799c-6.25 6.25 -6.25 16.3799 0 22.6299l11.2998 11.3096c6.25 6.25 16.3799 6.25 22.6299 0l91.8799 -91.8691l87.1904 87.1895
c6.23926 6.25 14.4297 9.37012 22.6191 9.37012c0.0107422 0 0.0244141 0.00488281 0.0351562 0.00488281c8.82129 0 16.8125 -3.58496 22.5957 -9.375zM247.11 -1.9502l113.939 113.95h-295.75l113.95 -113.95c9.05957 -9.05957 21.1104 -14.0498 33.9297 -14.0498
c12.8203 0 24.8701 4.99023 33.9307 14.0498zM409.06 160l48.3008 48.3096l-185.051 185.061l-75.8691 -75.8701l69.8994 -69.9004c9.37012 -9.36914 9.37012 -24.5693 0 -33.9395c-9.37988 -9.37012 -24.5703 -9.37012 -33.9395 0l-69.9004 69.8994l-100.45 -100.449
c-6.43945 -6.44043 -10.71 -14.4404 -12.71 -23.1104h359.72z" />
    <glyph glyph-name="fingerprint" unicode="&#xf577;" 
d="M256.12 202.04c13.2598 0 24 -10.75 23.9902 -24c1.55957 -99.1104 -15.9502 -176.61 -29.4805 -224.521c-2.97949 -10.5996 -12.6104 -17.5195 -23.0898 -17.5195c-20.9697 0 -25.8496 20.7695 -23.1201 30.4902c19.5605 69.6494 28.8398 139.3 27.7002 211.55
c0 13.2598 10.75 24 24 24zM255.26 283.77c56.9707 -0.839844 104.03 -46.9199 104.91 -102.72c0.790039 -50.8994 -2.99023 -102.08 -11.2695 -152.109c-0.770508 -4.6709 -7.61035 -23.1006 -27.5801 -19.7705c-13.0703 2.16016 -21.9307 14.5205 -19.7607 27.5801
c7.80078 47.2197 11.3809 95.5 10.6104 143.55c-0.469727 30.1299 -26.3096 55 -57.6201 55.4697c-34.5303 0.150391 -54.8594 -26.3896 -54.4502 -52.3398c0.800781 -51.4395 -4.0293 -102.93 -14.3691 -153.02c-2.69043 -12.9805 -15.3105 -21.3105 -28.3604 -18.6406
c-12.9697 2.6709 -21.3301 15.3809 -18.6396 28.3604c9.61914 46.6396 14.1191 94.6104 13.3691 142.55c-0.849609 54.0205 41.9004 101.16 103.16 101.09zM144.57 303.55c10.2793 -8.37012 11.8398 -23.4795 3.48926 -33.7598
c-18.7998 -23.0898 -28.4697 -51.0898 -28 -80.9697c0.640625 -40.6699 -2.66992 -81.4902 -9.85938 -121.33c-0.820312 -4.5498 -7.78027 -22.8604 -27.8906 -19.3604c-13.0498 2.36035 -21.6992 14.8398 -19.3594 27.8896c6.63965 36.7803 9.7002 74.4707 9.10938 112.051
c-0.639648 40.7197 13.1309 80.5 38.75 112c8.39062 10.2793 23.46 11.8193 33.7607 3.47949zM254.04 365.88c101.09 -1.5 184.6 -83.0801 186.16 -181.83c0.0751953 -4.88281 0.147461 -8.55371 0.147461 -13.4551c0 -35.9766 -2.0498 -71.4785 -6.03809 -106.395
c-1.06934 -9.23047 -9.85938 -23.0605 -26.5791 -21.1104c-13.1602 1.5 -22.6104 13.4102 -21.1104 26.5801c4.2998 37.5205 6.16992 75.75 5.58008 113.63c-1.15039 73.0801 -63.4502 133.45 -138.88 134.58c-11.5303 0.0800781 -22.9502 -1.08008 -34 -3.68945
c-12.8906 -3 -25.8301 4.93945 -28.8906 17.8291c-3.04004 12.9102 4.94043 25.8301 17.8301 28.8906c14.9102 3.53027 30.3701 5.37988 45.7803 4.96973zM506.11 244.43c6.22949 -28.2295 6.00977 -50.1602 5.83008 -72.3398
c-0.110352 -13.1895 -10.8301 -23.7998 -24 -23.7998h-0.200195c-13.25 0.110352 -23.9102 10.9297 -23.7998 24.2002c0.209961 24.1895 0.00976562 40.1895 -4.7002 61.5996c-2.86035 12.9502 5.31934 25.75 18.2598 28.6104
c13.0996 2.92969 25.75 -5.35059 28.6104 -18.2705zM465.99 335.15c7.62012 -10.8408 5 -25.8105 -5.83984 -33.4307c-10.8604 -7.58984 -25.8105 -5 -33.4199 5.86035c-39.8906 56.8301 -105.171 91.3604 -174.62 92.3896
c-56.3408 0.810547 -108.92 -20.0596 -147.681 -58.8594c-37.1201 -37.1406 -57.1094 -86.5 -56.2793 -139l-0.160156 -23.6406c-0.379883 -13 -11.0498 -23.2998 -23.9707 -23.2998c-0.239258 0 -0.489258 0 -0.719727 0.0205078
c-13.25 0.379883 -23.6699 11.4395 -23.2803 24.6895l0.120117 21.4697c-1.04004 65.6104 23.9502 127.28 70.3203 173.71c48.0098 48.0303 112.56 73.7607 182.35 72.9209c84.79 -1.27051 164.48 -43.4404 213.181 -112.83z" />
    <glyph glyph-name="glass-martini-alt" unicode="&#xf57b;" 
d="M502.05 390.4l-222.05 -222.04v-184.36h64c22.0898 0 40 -17.9102 40 -40c0 -4.41992 -3.58008 -8 -8 -8h-240c-4.41992 0 -8 3.58008 -8 8c0 22.0898 17.9102 40 40 40h64v184.36l-222.05 222.04c-21.25 21.2598 -6.2002 57.5996 23.8496 57.5996h444.4
c30.0498 0 45.0996 -36.3398 23.8496 -57.5996zM256 212.24l91.7695 91.7598h-183.529zM443.77 400h-375.529l48 -48h279.529z" />
    <glyph glyph-name="grin-squint-tears" unicode="&#xf586;" 
d="M117.1 63.9004c6.30078 0.899414 11.7002 -4.5 10.9004 -10.9004c-3.7002 -25.7998 -13.7002 -84 -30.5996 -100.9c-22 -21.8994 -57.9004 -21.5 -80.3008 0.900391c-22.3994 22.4004 -22.7998 58.4004 -0.899414 80.2998
c16.8994 16.9004 75.0996 26.9004 100.899 30.6006zM75.9004 105.6c-19.6006 -3.89941 -35.1006 -8.09961 -47.3008 -12.1992c-39.2998 90.5996 -22.0996 199.899 52 274c48.5 48.3994 111.9 72.5996 175.4 72.5996c38.9004 0 77.7998 -9.2002 113.2 -27.4004
c-4 -12.1992 -8.2002 -28 -12 -48.2998c-30.4004 17.9004 -65 27.7002 -101.2 27.7002c-53.4004 0 -103.6 -20.7998 -141.4 -58.5996c-61.5996 -61.5 -74.2998 -153.4 -38.6992 -227.801zM428.2 293.2c20.2998 3.89941 36.2002 8 48.5 12
c47.8994 -93.2002 32.8994 -210.5 -45.2002 -288.601c-48.5 -48.3994 -111.9 -72.5996 -175.4 -72.5996c-33.6992 0 -67.2998 7 -98.6992 20.5996c4.19922 12.2002 8.2998 27.7002 12.1992 47.2002c26.6006 -12.7998 55.9004 -19.7998 86.4004 -19.7998
c53.4004 0 103.6 20.7998 141.4 58.5996c65.6992 65.7002 75.7998 166 30.7998 242.601zM394.9 320.1c-6.30078 -0.899414 -11.7002 4.5 -10.9004 10.9004c3.7002 25.7998 13.7002 84 30.5996 100.9c22 21.8994 57.9004 21.5 80.3008 -0.900391
c22.3994 -22.4004 22.7998 -58.4004 0.899414 -80.2998c-16.8994 -16.9004 -75.0996 -26.9004 -100.899 -30.6006zM207.9 211.8c3 -3 4.19922 -7.2998 3.19922 -11.5l-22.5996 -90.5c-1.40039 -5.39941 -6.2002 -9.09961 -11.7002 -9.09961h-0.899414
c-5.80078 0.5 -10.5 5.09961 -11 10.8994l-4.80078 52.3008l-52.2998 4.7998c-5.7998 0.5 -10.3994 5.2002 -10.8994 11c-0.400391 5.89941 3.39941 11.2002 9.09961 12.5996l90.5 22.7002c4.2002 1 8.40039 -0.200195 11.4004 -3.2002zM247.6 236.9
c-0.0996094 0 -6.39941 -1.80078 -11.3994 3.19922c-3 3 -4.2002 7.30078 -3.2002 11.4004l22.5996 90.5c1.40039 5.7002 7 9.2002 12.6006 9.09961c5.7998 -0.5 10.5 -5.09961 11 -10.8994l4.7998 -52.2998l52.2998 -4.80078c5.7998 -0.5 10.4004 -5.19922 10.9004 -11
c0.399414 -5.89941 -3.40039 -11.1992 -9.10059 -12.5996zM299.6 148.4c29.1006 29.0996 53 59.5996 65.3008 83.7998c4.89941 9.2998 17.5996 9.89941 23.3994 1.7002c27.7002 -38.9004 6.10059 -106.9 -30.5996 -143.7s-104.8 -58.2998 -143.7 -30.6006
c-8.2998 5.90039 -7.5 18.6006 1.7002 23.4004c24.2002 12.5 54.7998 36.2998 83.8994 65.4004z" />
    <glyph glyph-name="grin-tears" unicode="&#xf588;" horiz-adv-x="640" 
d="M117.1 191.9c6.30078 0.899414 11.7002 -4.5 10.9004 -10.9004c-3.7002 -25.7998 -13.7002 -84 -30.5996 -100.9c-22 -21.8994 -57.9004 -21.5 -80.3008 0.900391c-22.3994 22.4004 -22.7998 58.4004 -0.899414 80.2998c16.8994 16.9004 75.0996 26.9004 100.899 30.6006
zM623.8 161.3c21.9004 -21.8994 21.5 -57.8994 -0.799805 -80.2002c-22.4004 -22.3994 -58.4004 -22.7998 -80.2998 -0.899414c-16.9004 16.8994 -26.9004 75.0996 -30.6006 100.899c-0.899414 6.30078 4.5 11.7002 10.8008 10.8008
c25.7998 -3.7002 84 -13.7002 100.899 -30.6006zM497.2 99.5996c12.3994 -37.2998 25.0996 -43.7998 28.2998 -46.5c-44.5996 -65.7998 -120 -109.1 -205.5 -109.1s-160.9 43.2998 -205.5 109.1c3.09961 2.60059 15.7998 9.10059 28.2998 46.5
c33.4004 -63.8994 100.3 -107.6 177.2 -107.6s143.8 43.7002 177.2 107.6zM122.7 223.5c-2.40039 0.299805 -5 2.5 -49.5 -6.90039c12.3994 125.4 118.1 223.4 246.8 223.4s234.4 -98 246.8 -223.5c-44.2998 9.40039 -47.3994 7.2002 -49.5 7
c-15.2002 95.2998 -97.7998 168.5 -197.3 168.5s-182.1 -73.2002 -197.3 -168.5zM320 48c-51.9004 0 -115.3 32.9004 -123.3 80c-1.7002 10 7.89941 18.4004 17.7002 15.2998c26 -8.2998 64.3994 -13.0996 105.6 -13.0996s79.7002 4.7998 105.6 13.0996
c10 3.2002 19.4004 -5.39941 17.7002 -15.2998c-8 -47.0996 -71.3994 -80 -123.3 -80zM450.3 216.3c-3.09961 -0.899414 -7.2002 0.100586 -9.2998 3.7002l-9.5 17c-7.7002 13.7002 -19.2002 21.5996 -31.5 21.5996s-23.7998 -7.89941 -31.5 -21.5996l-9.5 -17
c-1.90039 -3.2002 -5.7998 -4.7998 -9.2998 -3.7002c-3.60059 1.10059 -6 4.60059 -5.7002 8.2998c3.2998 42.1006 32.2002 71.4004 56 71.4004s52.7002 -29.2998 56 -71.4004c0.299805 -3.7998 -2.09961 -7.19922 -5.7002 -8.2998zM240 258.6
c-12.2998 0 -23.7998 -7.7998 -31.5 -21.5996l-9.5 -17c-1.90039 -3.2002 -5.7998 -4.7998 -9.2998 -3.7002c-3.60059 1.10059 -6 4.60059 -5.7002 8.2998c3.2998 42.1006 32.2002 71.4004 56 71.4004s52.7002 -29.2998 56 -71.4004
c0.299805 -3.7998 -2.09961 -7.19922 -5.7002 -8.2998c-3.09961 -1 -7.2002 0 -9.2998 3.7002l-9.5 17c-7.7002 13.7002 -19.2002 21.5996 -31.5 21.5996z" />
    <glyph glyph-name="grip-horizontal" unicode="&#xf58d;" 
d="M488 352c13.25 0 24 -10.7402 24 -24v-96c0 -13.25 -10.75 -24 -24 -24h-96c-13.25 0 -24 10.75 -24 24v96c0 13.2598 10.75 24 24 24h96zM464 256v48h-48v-48h48zM488 176c13.25 0 24 -10.7402 24 -24v-96c0 -13.25 -10.75 -24 -24 -24h-96c-13.25 0 -24 10.75 -24 24
v96c0 13.2598 10.75 24 24 24h96zM464 80v48h-48v-48h48zM120 352c13.25 0 24 -10.7402 24 -24v-96c0 -13.25 -10.75 -24 -24 -24h-96c-13.25 0 -24 10.75 -24 24v96c0 13.2598 10.75 24 24 24h96zM96 256v48h-48v-48h48zM120 176c13.25 0 24 -10.7402 24 -24v-96
c0 -13.25 -10.75 -24 -24 -24h-96c-13.25 0 -24 10.75 -24 24v96c0 13.2598 10.75 24 24 24h96zM96 80v48h-48v-48h48zM304 352c13.25 0 24 -10.7402 24 -24v-96c0 -13.25 -10.75 -24 -24 -24h-96c-13.25 0 -24 10.75 -24 24v96c0 13.2598 10.75 24 24 24h96zM280 256v48
h-48v-48h48zM304 176c13.25 0 24 -10.7402 24 -24v-96c0 -13.25 -10.75 -24 -24 -24h-96c-13.25 0 -24 10.75 -24 24v96c0 13.2598 10.75 24 24 24h96zM280 80v48h-48v-48h48z" />
    <glyph glyph-name="grip-vertical" unicode="&#xf58e;" horiz-adv-x="320" 
d="M120 448c13.2598 0 24 -10.7402 24 -24v-96c0 -13.25 -10.7402 -24 -24 -24h-96c-13.25 0 -24 10.75 -24 24v96c0 13.2598 10.75 24 24 24h96zM96 352v48h-48v-48h48zM296 448c13.2598 0 24 -10.7402 24 -24v-96c0 -13.25 -10.7402 -24 -24 -24h-96
c-13.25 0 -24 10.75 -24 24v96c0 13.2598 10.75 24 24 24h96zM272 352v48h-48v-48h48zM120 80c13.2598 0 24 -10.7402 24 -24v-96c0 -13.25 -10.7402 -24 -24 -24h-96c-13.25 0 -24 10.75 -24 24v96c0 13.2598 10.75 24 24 24h96zM96 -16v48h-48v-48h48zM296 80
c13.2598 0 24 -10.7402 24 -24v-96c0 -13.25 -10.7402 -24 -24 -24h-96c-13.25 0 -24 10.75 -24 24v96c0 13.2598 10.75 24 24 24h96zM272 -16v48h-48v-48h48zM120 264c13.2598 0 24 -10.7402 24 -24v-96c0 -13.25 -10.7402 -24 -24 -24h-96c-13.25 0 -24 10.75 -24 24v96
c0 13.2598 10.75 24 24 24h96zM96 168v48h-48v-48h48zM296 264c13.2598 0 24 -10.7402 24 -24v-96c0 -13.25 -10.7402 -24 -24 -24h-96c-13.25 0 -24 10.75 -24 24v96c0 13.2598 10.75 24 24 24h96zM272 168v48h-48v-48h48z" />
    <glyph glyph-name="headphones-alt" unicode="&#xf58f;" 
d="M192 160c17.6699 0 32 -14.3496 32 -32.0596v-127.881c0 -17.6992 -14.3301 -32.0596 -32 -32.0596h-48c-35.3496 0 -64 28.71 -64 64.1201v63.7598c0 35.4199 28.6504 64.1201 64 64.1201h48zM176 16.0898v95.8203h-32c-8.82031 0 -16 -7.19043 -16 -16.0303v-63.7598
c0 -8.83984 7.17969 -16.0303 16 -16.0303h32zM256 416c143.09 0 251.43 -119.13 256 -256v-112c0 -8.83984 -7.16016 -16 -16 -16h-16c-8.83984 0 -16 7.16016 -16 16v112c0 114.67 -93.3301 207.8 -208 207.82c-114.67 -0.0205078 -208 -93.1504 -208 -207.82v-112
c0 -8.83984 -7.16016 -16 -16 -16h-16c-8.83984 0 -16 7.16016 -16 16v112c4.57031 136.87 112.91 256 256 256zM368 160c35.3496 0 64 -28.71 64 -64.1201v-63.7598c0 -35.4102 -28.6504 -64.1201 -64 -64.1201h-48c-17.6699 0 -32 14.3604 -32 32.0596v127.881
c0 17.71 14.3301 32.0596 32 32.0596h48zM384 32.1201v63.7598c0 8.83984 -7.17969 16.0303 -16 16.0303h-32v-95.8203h32c8.82031 0 16 7.19043 16 16.0303z" />
    <glyph glyph-name="headset" unicode="&#xf590;" 
d="M224 112c0 -17.6699 -14.3301 -32 -32 -32h-48c-35.3496 0 -64 28.6504 -64 64v79.6396c0 35.3506 28.6504 64 64 64h48c17.6699 0 32 -14.3301 32 -32v-143.64zM176 128v111.64h-32c-8.82031 0 -16 -7.17969 -16 -16v-79.6396c0 -8.82031 7.17969 -16 16 -16h32z
M256 448c142.82 0 251.42 -118.83 256 -256v-165.72c0 -49.8604 -40.4199 -90.2803 -90.2803 -90.2803h-181.72c-26.5098 0 -48 21.4902 -48 48s21.4902 48 48 48h32c26.5098 0 48 -21.4902 48 -48h101.72c23.3506 0 42.2803 18.9297 42.2803 42.2803
c0 0 -0.0400391 163.29 -0.120117 165.72h0.120117c0 114.69 -93.3096 208 -208 208s-208 -93.3096 -208 -208v-16c0 -8.83984 -7.16016 -16 -16 -16h-16c-8.83984 0 -16 7.16016 -16 16v16c4.58008 137.17 113.18 256 256 256zM368 80h-48c-17.6699 0 -32 14.3301 -32 32
v143.64c0 17.6699 14.3301 32 32 32h48c35.3496 0 64 -28.6494 64 -64v-79.6396c0 -35.3496 -28.6504 -64 -64 -64zM336 239.64v-111.64h32c8.82031 0 16 7.17969 16 16v79.6396c0 8.82031 -7.17969 16 -16 16h-32z" />
    <glyph glyph-name="hot-tub" unicode="&#xf593;" 
d="M432.83 238.35c-3.09961 25.3906 -14.3604 47.9707 -31.4404 62.1504c-27.2695 22.6299 -45.0195 58.0498 -49.29 97.1602c-1.06934 9.78027 6.38086 18.3496 15.7305 18.3496h15.8496c7.86035 0 14.4805 -6.13965 15.4805 -14.3496
c3.09961 -25.4004 14.3701 -47.9805 31.4395 -62.1504c27.2705 -22.6299 45.0303 -58.0498 49.29 -97.1602c1.07031 -9.7793 -6.37988 -18.3496 -15.7295 -18.3496h-15.8506c-7.85938 0 -14.4795 6.13965 -15.4795 14.3496zM336.83 238.35
c-3.09961 25.3906 -14.3604 47.9707 -31.4404 62.1504c-27.2695 22.6299 -45.0195 58.0498 -49.29 97.1602c-1.06934 9.78027 6.38086 18.3496 15.7305 18.3496h15.8496c7.86035 0 14.4805 -6.13965 15.4805 -14.3496c3.09961 -25.4004 14.3701 -47.9805 31.4395 -62.1504
c27.2705 -22.6299 45.0303 -58.0498 49.29 -97.1602c1.07031 -9.7793 -6.37988 -18.3496 -15.7295 -18.3496h-15.8506c-7.85938 0 -14.4795 6.13965 -15.4795 14.3496zM480 160c17.6699 0 32 -14.3301 32 -32v-128c0 -35.3496 -28.6504 -64 -64 -64h-384
c-35.3496 0 -64 28.6504 -64 64v192c0 35.3496 28.6504 64 64 64h74.6699c14.3779 0 27.7109 -4.78223 38.4004 -12.7998l110.93 -83.2002h192zM48 192v-32h160l-59.7305 44.7998c-2.75 2.06055 -6.15918 3.2002 -9.59961 3.2002h-74.6699c-8.82031 0 -16 -7.17969 -16 -16z
M112 -16v128h-64v-112c0 -8.82031 7.17969 -16 16 -16h48zM232 -16v128h-72v-128h72zM352 -16v128h-72v-128h72zM464 0v112h-64v-128h48c8.82031 0 16 7.17969 16 16zM96 288c-44.1797 0 -80 35.8203 -80 80c0 44.1904 35.8203 80 80 80s80 -35.8096 80 -80
c0 -44.1797 -35.8203 -80 -80 -80zM96 400c-17.6396 0 -32 -14.3604 -32 -32s14.3604 -32 32 -32s32 14.3604 32 32s-14.3604 32 -32 32z" />
    <glyph glyph-name="hotel" unicode="&#xf594;" horiz-adv-x="576" 
d="M560 400h-16v-416h16c8.83984 0 16 -7.16016 16 -16v-16c0 -8.83984 -7.16016 -16 -16 -16h-544c-8.83984 0 -16 7.16016 -16 16v16c0 8.83984 7.16016 16 16 16h15.9805v416h-15.9805c-8.83984 0 -16 7.16016 -16 16v16c0 8.83984 7.16016 16 16 16h544
c8.83984 0 16 -7.16016 16 -16v-16c0 -8.83984 -7.16016 -16 -16 -16zM496 -16v416h-416.02v-416h176.02v80h-64c0 53.0195 42.9805 96 96 96s96 -42.9805 96 -96h-64v-80h176zM268.8 288c-6.39941 0 -12.7998 6.40039 -12.7998 12.7998v38.4004
c0 6.39941 6.40039 12.7998 12.7998 12.7998h38.4004c6.39941 0 12.7998 -6.40039 12.7998 -12.7998v-38.4004c0 -6.39941 -6.40039 -12.7998 -12.7998 -12.7998h-38.4004zM268.8 192c-6.39941 0 -12.7998 6.40039 -12.7998 12.7998v38.4004
c0 6.39941 6.40039 12.7998 12.7998 12.7998h38.4004c6.39941 0 12.7998 -6.40039 12.7998 -12.7998v-38.4004c0 -6.39941 -6.40039 -12.7998 -12.7998 -12.7998h-38.4004zM396.8 192c-6.39941 0 -12.7998 6.40039 -12.7998 12.7998v38.4004
c0 6.39941 6.40039 12.7998 12.7998 12.7998h38.4004c6.39941 0 12.7998 -6.40039 12.7998 -12.7998v-38.4004c0 -6.39941 -6.40039 -12.7998 -12.7998 -12.7998h-38.4004zM396.8 288c-6.39941 0 -12.7998 6.40039 -12.7998 12.7998v38.4004
c0 6.39941 6.40039 12.7998 12.7998 12.7998h38.4004c6.39941 0 12.7998 -6.40039 12.7998 -12.7998v-38.4004c0 -6.39941 -6.40039 -12.7998 -12.7998 -12.7998h-38.4004zM140.8 192c-6.39941 0 -12.7998 6.40039 -12.7998 12.7998v38.4004
c0 6.39941 6.40039 12.7998 12.7998 12.7998h38.4004c6.39941 0 12.7998 -6.40039 12.7998 -12.7998v-38.4004c0 -6.39941 -6.40039 -12.7998 -12.7998 -12.7998h-38.4004zM140.8 288c-6.39941 0 -12.7998 6.40039 -12.7998 12.7998v38.4004
c0 6.39941 6.40039 12.7998 12.7998 12.7998h38.4004c6.39941 0 12.7998 -6.40039 12.7998 -12.7998v-38.4004c0 -6.39941 -6.40039 -12.7998 -12.7998 -12.7998h-38.4004z" />
    <glyph glyph-name="joint" unicode="&#xf595;" horiz-adv-x="640" 
d="M476.34 266.9c-35.7803 25.0693 -60.3398 63.0098 -60.3398 106.699v66.4004c0 4.41992 3.58008 8 8 8h32c4.41992 0 8 -3.58008 8 -8v-62.3096c0 -29.0303 15.8496 -54.71 39.6602 -71.3203c35.3301 -24.6504 56.3398 -64.8203 56.3398 -108.061v-30.3096
c0 -4.41992 -3.58008 -8 -8 -8h-32c-4.41992 0 -8 3.58008 -8 8v30.3096c0 27.4307 -13.2803 52.9102 -35.6602 68.5908zM553.28 360.91c54.3096 -36.4102 86.7197 -97.1602 86.7197 -162.601v-30.3096c0 -4.41992 -3.58008 -8 -8 -8h-32c-4.41992 0 -8 3.58008 -8 8
v30.3096c0 50.1504 -25.21 96.6504 -67.3604 123.99c-18.4697 11.9805 -28.6396 33.3701 -28.6396 55.3906v62.3096c0 4.41992 3.58008 8 8 8h32c4.41992 0 8 -3.58008 8 -8v-62.3096c0 -6.82031 3.61035 -12.9805 9.28027 -16.7803zM616 96c13.25 0 24 -10.7402 24 -24
v-112c0 -13.25 -10.75 -24 -24 -24h-337.06c-98.6406 0 -195.29 27.7197 -278.94 80c83.6504 52.2803 180.3 80 278.94 80h337.06zM278.94 -16h36.8691l-54.1895 63.2002c-53.1797 -1.91992 -105.46 -12.1904 -154.74 -31.2002c54.6396 -21.0703 112.9 -32 172.061 -32z
M379.05 -16h96.7705l-54.8799 64h-96.7705zM592 -16v64h-107.83l54.8799 -64h52.9502z" />
    <glyph glyph-name="luggage-cart" unicode="&#xf59d;" horiz-adv-x="640" 
d="M624 48c8.83984 0 16 -7.16016 16 -16v-16c0 -8.83984 -7.16016 -16 -16 -16h-82.9404c1.79004 -5.03027 2.94043 -10.3604 2.94043 -16c0 -26.5098 -21.4902 -48 -48 -48s-48 21.4902 -48 48c0 5.63965 1.15039 10.9697 2.94043 16h-197.881
c1.79004 -5.03027 2.94043 -10.3604 2.94043 -16c0 -26.5098 -21.4902 -48 -48 -48s-48 21.4902 -48 48c0 5.63965 1.15039 10.9697 2.94043 16h-50.9404c-8.83984 0 -16 7.16016 -16 16v384h-80c-8.83984 0 -16 7.16016 -16 16v16c0 8.83984 7.16016 16 16 16h112
c8.83984 0 16 -7.16016 16 -16v-384h480zM224 96c-17.6699 0 -32 14.3301 -32 32v192c0 17.6699 14.3301 32 32 32h64v48c0 26.5098 21.4902 48 48 48h96c26.5098 0 48 -21.4902 48 -48v-48h64c17.6699 0 32 -14.3301 32 -32v-192c0 -17.6699 -14.3301 -32 -32 -32h-320z
M480 304v-160h48v160h-48zM336 400v-48h96v48h-96zM336 304v-160h96v160h-96zM240 304v-160h48v160h-48z" />
    <glyph glyph-name="map-marked" unicode="&#xf59f;" horiz-adv-x="576" 
d="M560 288c8.5 0 16 -6.7998 16 -16v-250.3c0 -13.1006 -7.90039 -24.7998 -20.0996 -29.7002l-151.9 -52.9004c-13 -4.19922 -27 -4.09961 -40 0.200195l-172 60.7002l-170 -62.7998c-2 -0.799805 -4 -1.2002 -6 -1.2002c-8.5 0 -16 6.7998 -16 16v250.3
c0 13.1006 8 24.9004 20.0996 29.7002l133.2 46.5c4.2002 -14.2002 10.2998 -29.0996 18.2998 -44.5l-123.6 -43v-193l127.4 47l0.599609 0.200195v180.2c13.2002 -24 29.9004 -48.7002 48 -72.8008v-113l128 -45.1992v81.3994c1.90039 1.60059 3.7998 3.2002 5.5 5.10059
c14.5996 16.5 28.7998 33.5 42.5 50.7998v-143.2l128 44.5v193l-81.7002 -30.2002c14 21.7998 26 43.4004 34.2002 63.7998l73.5 27.2002c2 0.799805 4 1.2002 6 1.2002zM320 96c-5 0 -10 2 -13.5 6.09961c-35.2998 40 -127.3 150.2 -127.3 210.601
c0 74.7002 63 135.3 140.8 135.3s140.8 -60.5996 140.8 -135.3c0 -60.5 -92 -170.601 -127.3 -210.601c-3.5 -4.09961 -8.5 -6.09961 -13.5 -6.09961zM320 400c-51.2002 0 -92.7998 -39.2002 -92.7998 -87.2998c0 -21.4004 31.7998 -79.1006 92.7998 -152.601
c61 73.5 92.7998 131.2 92.7998 152.601c0 48.0996 -41.5996 87.2998 -92.7998 87.2998z" />
    <glyph glyph-name="map-marked-alt" unicode="&#xf5a0;" horiz-adv-x="576" 
d="M344 322c0 -13.2002 -10.7002 -24 -24 -24s-24 10.7998 -24 24c0 13.2998 10.7002 24 24 24s24 -10.7002 24 -24zM320 96c-5 0 -10 2 -13.5 6.09961c-35.2998 40 -127.3 150.2 -127.3 210.601c0 74.7002 63 135.3 140.8 135.3s140.8 -60.5996 140.8 -135.3
c0 -60.5 -92 -170.601 -127.3 -210.601c-3.5 -4.09961 -8.5 -6.09961 -13.5 -6.09961zM320 400c-51.2002 0 -92.7998 -39.2002 -92.7998 -87.2998c0 -21.4004 31.7998 -79.1006 92.7998 -152.601c61 73.5 92.7998 131.2 92.7998 152.601
c0 48.0996 -41.5996 87.2998 -92.7998 87.2998zM560 288c8.5 0 16 -6.7998 16 -16v-250.3c0 -13.1006 -7.90039 -24.7998 -20.0996 -29.7002l-151.9 -52.9004c-13 -4.19922 -27 -4.09961 -40 0.200195l-172 60.7002l-170 -62.7998c-2 -0.799805 -4 -1.2002 -6 -1.2002
c-8.5 0 -16 6.7998 -16 16v250.3c0 13.1006 8 24.9004 20.0996 29.7002l133.2 46.5c4.2002 -14.2002 10.2998 -29.0996 18.2998 -44.5l-123.6 -43v-193l127.4 47l0.599609 0.200195v180.2c13.2002 -24 29.9004 -48.7002 48 -72.8008v-113l128 -45.1992v81.3994
c1.90039 1.60059 3.7998 3.2002 5.5 5.10059c14.5996 16.5 28.7998 33.5 42.5 50.7998v-143.2l128 44.5v193l-81.7002 -30.2002c14 21.7998 26 43.4004 34.2002 63.7998l73.5 27.2002c2 0.799805 4 1.2002 6 1.2002z" />
    <glyph glyph-name="marker" unicode="&#xf5a1;" 
d="M485.48 421.49c35.3594 -35.3604 35.3594 -92.6699 0.00976562 -128.03l-263.51 -263.51c-86.9707 -86.96 -192.301 -93.9502 -198.03 -93.9502c-14.0703 0 -25.4004 12.2803 -23.8105 26.6602l0.0302734 0.229492c8.41895 75.6816 42.6758 143.985 93.7803 195.091
l207.819 207.81l-30.8994 30.9004l-113.13 -113.131c-6.25 -6.25 -16.3799 -6.25 -22.6299 0l-11.3105 11.3105c-6.25 6.25 -6.25 16.3799 0 22.6299l118.79 118.78c15.6104 15.6201 40.9404 15.6201 56.5605 0l36.5498 -36.5498l21.7598 21.7598
c17.6797 17.6699 40.8398 26.5098 64.0098 26.5098s46.3398 -8.83984 64.0107 -26.5098zM188.03 63.8896l73.0693 73.0703l-60.1396 60.1396l-73.0703 -73.0693c-37.0098 -37.0107 -62.8799 -84 -74.5996 -134.74c50.75 11.7197 97.7197 37.5801 134.74 74.5996z
M451.55 327.41c8.03027 8.03027 12.4502 18.71 12.4502 30.0703c0 11.3496 -4.41992 22.0293 -12.46 30.0596c-8.03027 8.04004 -18.71 12.46 -30.0703 12.46c-11.3496 0 -22.0293 -4.41992 -30.0596 -12.46l-156.51 -156.5l60.1396 -60.1396z" />
    <glyph glyph-name="medal" unicode="&#xf5a2;" 
d="M342.17 166.33c9.40039 -1.36035 13.1699 -12.9502 6.33984 -19.5801l-37.9297 -36.96l8.96973 -52.2197c1.28027 -7.4707 -4.67969 -13.4307 -11.3398 -13.4307c-1.75977 0 -3.57031 0.410156 -5.30957 1.33008l-46.9004 24.6504l-46.9004 -24.6504
c-1.75 -0.929688 -3.55957 -1.34961 -5.33008 -1.34961c-6.64941 0 -12.5996 5.97949 -11.3193 13.4395l8.96973 52.2207l-37.9297 36.96c-6.82031 6.62988 -3.0498 18.2295 6.34961 19.5898l52.4297 7.63965l23.4307 47.5205
c2.12012 4.26953 6.2002 6.38965 10.2803 6.38965c4.10938 0 8.21973 -2.13965 10.3291 -6.38965l23.4307 -47.5205zM495.97 448c12.9502 0 20.5303 -14.5703 13.1104 -25.1797l-113.99 -162.84c32.7002 -34.4502 52.9102 -80.8506 52.9102 -131.98
c0 -105.87 -86.1299 -192 -192 -192s-192 86.1299 -192 192c0 51.1299 20.21 97.5303 52.9102 131.97l-113.99 162.851c-7.41992 10.6094 0.160156 25.1797 13.1104 25.1797h157.85c11.6572 0 21.8467 -6.21387 27.4404 -15.54l54.6797 -91.1299l54.6797 91.1299
c5.78027 9.63965 16.2002 15.54 27.4404 15.54h157.85zM77.4902 400l76.6699 -109.53c18.5703 11.6807 39.1895 20.3506 61.2998 25.1299l-50.6396 84.4004h-87.3301zM400 128c0 79.5303 -64.4697 144 -144 144s-144 -64.4697 -144 -144s64.4697 -144 144 -144
s144 64.4697 144 144zM357.84 290.47l76.6699 109.53h-87.3301l-50.6396 -84.4004c22.1104 -4.76953 42.7295 -13.4492 61.2998 -25.1299z" />
    <glyph glyph-name="monument" unicode="&#xf5a6;" horiz-adv-x="384" 
d="M368 -16c8.83984 0 16 -7.16016 16 -16v-16c0 -8.83984 -7.16016 -16 -16 -16h-352c-8.83984 0 -16 7.16016 -16 16v16c0 8.83984 7.16016 16 16 16h33.9805l44.8896 363.26c0.751953 7.54688 4.12988 14.3613 9.20996 19.4404l76.6104 76.6094
c3.11914 3.13086 7.21973 4.69043 11.3096 4.69043c0.0107422 0 0.0234375 0.00292969 0.0341797 0.00292969c4.40527 0 8.39453 -1.79492 11.2754 -4.69336l76.6104 -76.6094c5.08008 -5.0791 8.45801 -11.8936 9.20996 -19.4404l44.8896 -363.26h33.9805zM98.3398 -16
h187.32l-43.5801 352.67l-50.0801 50.0801l-50.0996 -50.0996zM227.2 176c6.39941 0 12.7998 -6.40039 12.7998 -12.7998v-22.4004c0 -6.39941 -6.40039 -12.7998 -12.7998 -12.7998h-70.4004c-6.39941 0 -12.7998 6.40039 -12.7998 12.7998v22.4004
c0 6.39941 6.40039 12.7998 12.7998 12.7998h70.4004z" />
    <glyph glyph-name="mortar-pestle" unicode="&#xf5a7;" 
d="M496 256c8.7998 0 16 -7.2002 16 -16v-16c0 -8.7998 -7.2002 -16 -16 -16h-16v-16c0 -81.4004 -50.7998 -150.8 -122.3 -178.8c12.7002 -16.7002 21.7002 -36.6006 24.8994 -58.4004c1.5 -9.7998 -6 -18.7998 -15.8994 -18.7998h-221.4
c-9.89941 0 -17.2998 9 -15.8994 18.7998c3.19922 21.7998 12.0996 41.6006 24.8994 58.4004c-71.5 28 -122.3 97.3994 -122.3 178.8v16h-16c-8.7998 0 -16 7.2002 -16 16v16c0 8.7998 7.2002 16 16 16h168.6l241.801 181.2c16.1992 12.2002 37.8994 14.2002 56 5.09961
c32.6992 -16.2998 39.6992 -59.8994 13.8994 -85.7002l-100.6 -100.6h100.3zM455.2 398.9l-190.601 -142.9h63.2002l134.7 134.6c0.5 0.5 2 2.10059 1.5 4.80078c-0.5 2.69922 -2.40039 3.69922 -3 4c-0.799805 0.399414 -1.59961 0.599609 -2.5 0.599609
c-1.2002 0 -2.2998 -0.400391 -3.2998 -1.09961zM432 192v16h-352v-16c0 -59.7002 36 -112.3 91.7002 -134l59.2998 -23.2002l-38.5 -50.5996c0 -0.100586 -0.0996094 -0.100586 -0.0996094 -0.200195h127.199c0 0.0996094 -0.0996094 0.0996094 -0.0996094 0.200195
l-38.5 50.5996l59.2998 23.2002c55.7002 21.7002 91.7002 74.2998 91.7002 134z" />
    <glyph glyph-name="paint-brush-alt" unicode="&#xf5a9;" 
d="M489.17 303.95l-202.24 -222.44l-0.0195312 -0.0195312c2.97949 -28.4502 -1.7002 -145.49 -142.91 -145.49c-101.33 0 -144 81.4199 -144 174.08c11.0098 -7.52051 49.6602 -38.6504 62.1504 -38.6504c7.40918 0 13.7598 4.23047 16.4092 11.2207
c23.2402 61.25 64.21 78.4395 109.341 81.3398l165.939 248.16c17.8105 25.4092 41.29 35.8496 64.6797 35.8496c64.7607 0 128.921 -80.0195 70.6504 -144.05zM393.15 384.6l-154.75 -231.449l27.7598 -23.1309l187.479 206.221
c10.6299 11.6699 12.96 22.2793 7.60059 34.4102c-7.15039 16.1797 -26.3203 29.3496 -42.7207 29.3496c-6.25977 0 -15.6895 -1.59961 -25.3691 -15.4004zM144 -16c107.75 0 95.8496 87.3799 93.6201 107.31l-30.9404 25.79
c-64.9893 -4.18945 -73.1992 -25.04 -83.2295 -51.4795c-9.02051 -23.8105 -30.4404 -39.8105 -55.5098 -41.9502c14.0293 -22.7998 37.46 -39.6699 76.0596 -39.6699z" />
    <glyph glyph-name="paint-roller" unicode="&#xf5aa;" 
d="M456 376c30.8799 0 56 -25.1201 56 -56v-96c0 -30.8799 -25.1201 -56 -56 -56h-200c-4.41016 0 -8 -3.58984 -8 -8v-32h8c17.6699 0 32 -14.3301 32 -32v-128c0 -17.6699 -14.3301 -32 -32 -32h-64c-17.6699 0 -32 14.3301 -32 32v128c0 17.6699 14.3301 32 32 32h8v32
c0 30.8799 25.1201 56 56 56h200c4.41016 0 8 3.58984 8 8v96c0 4.41016 -3.58984 8 -8 8h-40v-24c0 -26.5098 -21.4902 -48 -48 -48h-320c-26.5098 0 -48 21.4902 -48 48v96c0 26.5098 21.4902 48 48 48h320c26.5098 0 48 -21.4902 48 -48v-24h40zM368 304v96h-320v-96h320
zM240 -16v96h-32v-96h32z" />
    <glyph glyph-name="passport" unicode="&#xf5ab;" horiz-adv-x="448" 
d="M416 448c17.6699 0 32 -14.3301 32 -32v-448c0 -17.6699 -14.3301 -32 -32 -32h-352c-35.3496 0 -64 28.6504 -64 64v384c0 35.3496 28.6504 64 64 64h352zM400 -16v416h-336c-8.82031 0 -16 -7.17969 -16 -16v-384c0 -8.82031 7.17969 -16 16 -16h336zM112 32
c-8.7998 0 -16 7.2002 -16 16s7.2002 16 16 16h224c8.7998 0 16 -7.2002 16 -16s-7.2002 -16 -16 -16h-224zM224 120c-66.2695 0 -120 53.7305 -120 120c0 66.2803 53.7305 120 120 120c66.2803 0 120 -53.7197 120 -120c0 -66.2695 -53.7197 -120 -120 -120zM310.38 256
c-5.0498 27.3203 -22.8096 49.9805 -46.8604 62.1904c6.52051 -17.2002 10.8809 -38.5107 12.2705 -62.1904h34.5898zM275.79 224c-1.38965 -23.6797 -5.74023 -44.9805 -12.2705 -62.1904c24.04 12.21 41.8105 34.8701 46.8604 62.1904h-34.5898zM224 325.76
c-6.91016 -8.37012 -17.5098 -32.3896 -19.9697 -69.7598h39.9297c-2.4502 37.3701 -13.0498 61.3896 -19.96 69.7598zM243.96 224h-39.9199c2.4502 -37.3701 13.0498 -61.3896 19.96 -69.7598c6.91016 8.37012 17.5098 32.3896 19.96 69.7598zM184.47 318.19
c-24.04 -12.21 -41.7998 -34.8701 -46.8594 -62.1904h34.5898c1.39941 23.6797 5.75 44.9902 12.2695 62.1904zM172.21 224h-34.5898c5.05957 -27.3203 22.8203 -49.9805 46.8604 -62.1904c-6.52051 17.21 -10.8701 38.5107 -12.2705 62.1904z" />
    <glyph glyph-name="pen-fancy" unicode="&#xf5ac;" 
d="M424.86 448c75.2197 0 119.64 -96.3799 58.21 -150.7l-211.19 -191.3l-28.6104 -85.8799c-3.36914 -10.126 -11.3652 -18.126 -21.4893 -21.5l-187.79 -62.6201l-33.9902 34l62.5996 187.88c3.37695 10.125 11.375 18.123 21.5 21.5l85.8301 28.6201l191.221 211.28
c16.8594 19.0801 40.2598 28.7197 63.71 28.7197zM199.97 41.9502l26.3799 79.25l0.610352 1.80957l-40.0596 40.0703l-1.81055 -0.610352l-79.2002 -26.4102l-35.7197 -107.22l50 50.0205c-0.0195312 0.399414 -0.229492 0.729492 -0.229492 1.13965
c0 13.2598 10.7393 24 23.9893 24s23.9902 -10.7402 23.9902 -24c0 -13.25 -10.7402 -24 -23.9902 -24c-0.399414 0 -0.739258 0.209961 -1.13965 0.230469l-50 -50.0205zM450.87 332.88c8.16016 7.23047 12.5996 16.6797 12.9102 27
c0.679688 21.9902 -18.6904 40.1201 -38.9199 40.1201c-10.7705 0 -20.6299 -4.44043 -27.7607 -12.5098l-174.229 -192.51l36 -36.0205z" />
    <glyph glyph-name="pen-nib" unicode="&#xf5ad;" 
d="M493.87 352.4c24.1699 -24.1699 24.1699 -63.3506 0 -87.5205l-92.4502 -92.4502l-28.21 -99.8301c-5.76172 -20.3838 -21.3594 -36.6455 -41.3496 -43.3096l-279.86 -93.29l-52 52l93.29 279.86c6.66406 19.9902 22.9258 35.5879 43.3096 41.3496l99.8301 28.21
l92.4502 92.4502c12.0801 12.0898 27.9199 18.1299 43.7598 18.1299c15.8408 0 31.6807 -6.04004 43.7607 -18.1299zM327.02 85.6504l28.2305 99.8398l0.290039 1.04004l-105 105l-1.0498 -0.299805l-99.8301 -28.2109
c-5.11035 -1.44922 -9.15039 -5.30957 -10.8301 -10.3398l-77.6201 -232.85l103.59 103.59c-2.99023 6.25977 -4.7998 13.1797 -4.7998 20.5801c0 26.5098 21.4902 48 48 48s48 -21.4902 48 -48s-21.4902 -48 -48 -48c-7.40039 0 -14.3203 1.80957 -20.5801 4.7998
l-103.59 -103.59l232.85 77.6104c5.03027 1.67969 8.90039 5.72949 10.3398 10.8301zM459.93 298.82c5.41992 5.41992 5.41992 14.2295 0 19.6396l-77.4697 77.4697c-7.96973 7.9707 -17.3496 2.29004 -19.6396 0l-74.4102 -74.4102l97.1094 -97.1094z" />
    <glyph glyph-name="pencil-ruler" unicode="&#xf5ae;" 
d="M502.71 79.8604c12.3896 -12.3906 12.3896 -32.4707 0 -44.8604l-89.71 -89.7002c-6.19043 -6.18945 -14.3096 -9.29004 -22.4297 -9.29004s-16.2402 3.10059 -22.4307 9.29004l-122.83 122.83l-112.949 -112.96l-107.44 -18.8398
c-1.26953 -0.219727 -2.50977 -0.330078 -3.74023 -0.330078c-12.8496 0 -23.1602 11.6602 -20.8594 24.9004l18.75 107.439l113.02 113l-22.6201 22.6201l-100.18 100.17c-12.3896 12.3896 -12.3799 32.4697 0 44.8604l89.71 89.7197
c6.2002 6.19043 14.3096 9.29004 22.4297 9.29004s16.2305 -3.09961 22.4307 -9.29004l86.71 -86.71l36.0898 -36.0996l56.0195 56.0098l0.0107422 -0.00976562l57.3691 57.3594c12.4902 12.4902 28.8701 18.7402 45.25 18.7402c16.3809 0 32.7607 -6.25 45.25 -18.7402
l22.6807 -22.6797c25 -24.9902 25 -65.5205 0.00976562 -90.5098l-57.3604 -57.3701l-56.0098 -56.0098zM414 395.32l-51.7002 -51.6807l45.3105 -45.3096l51.6895 51.6895c4.08008 4.07031 4.69043 8.84082 4.69043 11.3105s-0.610352 7.22949 -4.69043 11.3096
l-22.6797 22.6807c-4.08008 4.08008 -8.83984 4.68945 -11.3105 4.68945c-2.46973 0 -7.22949 -0.609375 -11.3096 -4.68945zM143.41 237.9l22.6494 -22.6309l66.6904 66.6807l-36.0996 36.0996l-2.32031 2.32031l-22.0303 -22.0303c-6.25 -6.25 -16.3799 -6.25 -22.6299 0
l-11.3096 11.3105c-6.25 6.25 -6.25 16.3799 0 22.6299l22.0293 22.0293l-38.9492 38.9404l-66.6904 -66.6904zM109.14 -0.169922l264.551 264.55l-45.3105 45.3105l-264.62 -264.561l-9.58984 -54.9395zM390.57 -9.25l66.6895 66.6797l-38.9395 38.9404l-22.0303 -22.0303
c-6.25 -6.25 -16.3799 -6.25 -22.6299 0l-11.3105 11.3105c-6.25 6.25 -6.25 16.3799 0 22.6299l22.0303 22.0293l-38.4395 38.4404l-66.6904 -66.6904z" />
    <glyph glyph-name="plane-arrival" unicode="&#xf5af;" horiz-adv-x="640" 
d="M624 -16c8.83984 0 16 -7.16016 16 -16v-16c0 -8.83984 -7.16016 -16 -16 -16h-608c-8.83984 0 -16 7.16016 -16 16v16c0 8.83984 7.16016 16 16 16h608zM113.43 135.68l-96.4492 81.6904c-10.7705 9.12012 -16.9805 22.5195 -16.9805 36.6299v84.54
c0 16.3799 12.5996 45 48 45c7.78027 0 12 -1.52051 26.1396 -5.21973c14.5801 -3.80078 26.5205 -11.2305 32.2607 -25.1602l23.5498 -57.1602l76.7402 -20.04l-33.5107 110.06c-1.34766 4.42676 -2.08398 9.13281 -2.08398 13.9971
c0 12.8945 5.09668 24.6074 13.3848 33.2334c9.16992 9.5498 21.7295 14.75 34.6191 14.75c8 0 9.57031 -0.889648 45.7803 -10.3496c12.9375 -3.37988 23.7432 -11.9697 30.0098 -23.4502l102.66 -188.09l97.8906 -25.5605
c32.6494 -8.53027 60.9492 -23.9199 81.8594 -44.5098c25.3701 -25 35.1104 -49.0898 28.9199 -71.6602c-6.08984 -22.0498 -26.5098 -37.8701 -60.71 -47c-36.3096 -9.67969 -70.6201 -4.53027 -93.25 1.37012l-306.359 80
c-12.0605 3.15039 -23.4102 9.11035 -32.4707 16.9297zM48 338.54v-84.54l96.4404 -81.6904c3.87988 -3.33984 8.56934 -5.80957 13.5693 -7.10938l306.37 -80c37.1006 -9.68066 61.9902 -3.23047 68.75 -1.43066c20.7197 5.53027 26.4199 11.9707 26.8105 13.3906
c0.399414 1.45996 -1.2207 9.80957 -16.3408 24.7002c-14.9199 14.6992 -35.7695 25.8594 -60.29 32.2598l-117.96 30.7998l-112.59 206.29l-33.6602 8.79004l58.5 -192.17l-182.93 47.7695l-32.6504 79.2803z" />
    <glyph glyph-name="prescription" unicode="&#xf5b1;" horiz-adv-x="384" 
d="M289.94 96l89.3691 -89.3701c6.25 -6.25 6.25 -16.3799 0 -22.6299l-11.3096 -11.3096c-6.25 -6.25 -16.3799 -6.25 -22.6299 0l-89.3701 89.3691l-89.3701 -89.3691c-6.25 -6.25 -16.3799 -6.25 -22.6299 0l-11.3096 11.3096c-6.25 6.25 -6.25 16.3799 0 22.6299
l89.3691 89.3701l-128 128h-46.0596v-80c0 -8.83984 -7.16016 -16 -16 -16h-16c-8.83984 0 -16 7.16016 -16 16v256c0 8.83984 7.16016 16 16 16h144c53.0195 0 96 -42.9805 96 -96c0 -52.4199 -42.0498 -94.8604 -94.2402 -95.8203l94.2402 -94.2393l89.3701 89.3691
c6.25 6.25 16.3799 6.25 22.6299 0l11.3096 -11.3096c6.25 -6.25 6.25 -16.3799 0 -22.6299zM48 272h112c26.4697 0 48 21.5303 48 48s-21.5303 48 -48 48h-112v-96z" />
    <glyph glyph-name="shuttle-van" unicode="&#xf5b6;" horiz-adv-x="640" 
d="M628.88 237.35c6.93262 -8.3252 11.1191 -19.0586 11.1201 -30.7295v-110.62c0 -17.6699 -14.3301 -32 -32 -32h-32c0 -52.9297 -43.0596 -96 -96 -96s-96 43.0703 -96 96h-128c0 -52.9297 -43.0596 -96 -96 -96s-96 43.0703 -96 96h-32c-17.6699 0 -32 14.3301 -32 32
v288c0 17.6699 14.3301 32 32 32h418.02c19.7627 0 37.4258 -8.93652 49.1709 -23.0303zM376 368v-112h174.85l-88.54 106.24c-3.0498 3.66016 -7.5293 5.75977 -12.29 5.75977h-74.0195zM216 368v-112h112v112h-112zM48 368v-112h120v112h-120zM160 16
c26.5098 0 48 21.4902 48 48s-21.4902 48 -48 48s-48 -21.4902 -48 -48s21.4902 -48 48 -48zM480 16c26.5098 0 48 21.4902 48 48s-21.4902 48 -48 48s-48 -21.4902 -48 -48s21.4902 -48 48 -48zM592 112v94.6201l-1.15039 1.37988h-542.85v-96h29.3604
c16.6494 28.5498 47.2695 48 82.6396 48s65.9902 -19.4502 82.6396 -48h154.721c16.6494 28.5498 47.2695 48 82.6396 48s65.9902 -19.4502 82.6396 -48h29.3604z" />
    <glyph glyph-name="smile-plus" unicode="&#xf5b9;" horiz-adv-x="640" 
d="M208 352c114.9 0 208 -93.0996 208 -208s-93.0996 -208 -208 -208s-208 93.0996 -208 208s93.0996 208 208 208zM208 -16c88.2002 0 160 71.7998 160 160s-71.7998 160 -160 160s-160 -71.7998 -160 -160s71.7998 -160 160 -160zM269.8 108.2
c8.60059 10.0996 23.7002 11.2002 33.7002 2.7002c10.0996 -8.60059 11.2998 -23.7002 2.7002 -33.8008c-24.4004 -28.5996 -60.2002 -45 -98.2002 -45s-73.7998 16.4004 -98.2002 45c-8.5 10 -7.39941 25.2002 2.7002 33.8008c10 8.5 25.0996 7.39941 33.7998 -2.7002
c30.6006 -35.7998 92.9004 -35.7998 123.5 0zM144 160c-17.7002 0 -32 14.2998 -32 32s14.2998 32 32 32s32 -14.2998 32 -32s-14.2998 -32 -32 -32zM272 160c-17.7002 0 -32 14.2998 -32 32s14.2998 32 32 32s32 -14.2998 32 -32s-14.2998 -32 -32 -32zM624 360
c8.7998 0 16 -7.2002 16 -16v-16c0 -8.7998 -7.2002 -16 -16 -16h-72v-72c0 -8.7998 -7.2002 -16 -16 -16h-16c-8.7998 0 -16 7.2002 -16 16v72h-72c-8.7998 0 -16 7.2002 -16 16v16c0 8.7998 7.2002 16 16 16h72v72c0 8.7998 7.2002 16 16 16h16
c8.7998 0 16 -7.2002 16 -16v-72h72z" />
    <glyph glyph-name="solar-panel" unicode="&#xf5ba;" horiz-adv-x="640" 
d="M585.24 421.26l54.2998 -320c3.32031 -19.5 -12 -37.2598 -32.1396 -37.2598h-191.4v-80.0498l31.96 0.0302734c8.84961 0.00976562 16.0303 -7.1709 16.0205 -16.0205l-0.0400391 -15.7197c-0.0107422 -8.82031 -7.16016 -15.9707 -15.9805 -15.9805l-255.94 -0.259766
c-8.84961 -0.00976562 -16.0293 7.16992 -16.0195 16.0195l0.0400391 15.7305c0.00976562 8.82031 7.16016 15.9697 15.9795 15.9805l31.9805 0.0292969v80.2402h-191.4c-20.1396 0 -35.46 17.7598 -32.1494 37.2598l54.3096 320
c2.62012 15.4307 16.2207 26.7402 32.1504 26.7402h466.18c15.9297 0 29.5303 -11.3096 32.1504 -26.7402zM558.3 288l-19.0098 112h-113.58l11.2002 -112h121.39zM251.31 288h137.37l-11.1992 112h-114.971zM393.49 240h-146.98l-12.7998 -128h172.58zM100.71 400
l-19.0098 -112h121.39l11.2002 112h-113.58zM73.5498 240l-21.7197 -128h133.65l12.7998 128h-124.73zM368 -16.0996v80.0996h-96v-80.2002zM454.51 112h133.65l-21.7197 128h-124.73z" />
    <glyph glyph-name="spa" unicode="&#xf5bb;" horiz-adv-x="576" 
d="M568.28 256c4.39941 0 7.75977 -3.41016 7.71973 -7.82031c-0.230469 -27.9199 -7.12988 -126.13 -88.7695 -199.3c-82.0508 -79.8994 -163.311 -80.8799 -196.881 -80.8799h-4.47949c-33.4404 0 -114.88 0.820312 -197.11 80.8799
c-81.6299 73.1602 -88.54 171.38 -88.7695 199.3c-0.0400391 4.41016 3.33008 7.82031 7.71973 7.82031h0.0400391c21.3896 -0.0996094 84.5 -3.62988 147.75 -36.04c26.6201 78.3203 69.3096 146.59 121.78 192.23c2.91992 2.54004 6.83008 3.80957 10.7393 3.80957
c3.91016 0 7.82031 -1.26953 10.7402 -3.80957c52.46 -45.6406 95.1406 -113.91 121.73 -192.221c63.2598 32.4004 126.37 35.9307 147.75 36.0303h0.0400391zM122.26 83.2695c53.5498 -52.1494 105.391 -63.8691 139.16 -66.5195l-17.79 43.04
c-12.8301 31.04 -30.5098 56.3701 -54.0498 77.4297l-0.759766 0.680664l-0.730469 0.719727c-42.9795 41.8994 -96.1396 58.6299 -134.92 65.21c7.41992 -34.8105 25.25 -81.2197 67.6396 -119.21l0.740234 -0.660156zM288 78.1396
c13.0498 31.5605 33.29 65.2305 66.4102 94.8701c7.92969 7.7207 16.2695 14.25 24.6396 20.6104c-20.0693 63.8203 -51.8096 120.74 -91.0303 162.36c-39.2295 -41.6201 -71 -98.5303 -91.0791 -162.36c8.37988 -6.36035 16.7197 -12.8896 24.6494 -20.6201
c33.1201 -29.6299 53.3604 -63.2998 66.4102 -94.8604zM455.19 84.6201c42.3896 38 60.2295 84.4199 67.6396 119.229c-38.7305 -6.56934 -91.9199 -23.2998 -134.93 -65.2197l-0.730469 -0.719727l-0.759766 -0.679688
c-23.54 -21.0703 -41.2197 -46.3906 -54.0498 -77.4307l-17.8008 -43.0498c33.71 2.61035 85.54 14.29 139.181 66.5195l0.709961 0.69043z" />
    <glyph glyph-name="splotch" unicode="&#xf5bc;" 
d="M459.67 268.37c30.1299 -10.1504 50.1299 -34.3301 52.1699 -63.0498c2 -27.9199 -13.6494 -53.8105 -40.8701 -67.5508l-56.1895 -28.3496c-8.62988 -4.33008 -14.1006 -11.3604 -14.6602 -18.7998l-4.25 -55.2402c-2 -25.5801 -18.3398 -47.7598 -43.75 -59.3496
c-11.8105 -5.39062 -24.5605 -8.03027 -37.25 -8.03027c-18.5898 0 -37 5.69043 -51.8701 16.7197l-49.25 36.4404c-8.58984 6.33008 -21.0303 8.78027 -32.3701 6.28027l-63.3994 -13.6406c-33.0908 -7.08984 -66.8408 4.39062 -86.0908 29.3799
c-16.2197 21 -18.8096 47.4902 -6.96973 70.8506l25.75 50.8799c3.31055 6.50977 2.58984 13.4795 -2.03027 19.6699l-34.8994 46.7803c-16.21 21.7295 -18.21 48.6699 -5.33984 72.0498c14.8691 27.0098 46.3398 42.6299 79.8994 40.21l65.1504 -5.02051
c11.54 -0.879883 23.1602 2.98047 30.1602 10.1406l41.8096 42.5498c21.1299 21.4902 53.3496 29.7197 84.2197 21.6602c28.0605 -7.37012 48.9102 -26.9805 55.75 -52.4199l14.5 -53.9707c2.03027 -7.64941 9.34082 -14.4199 19.0303 -17.6992zM449.33 180.62
c9.91016 4.99023 15.25 12.75 14.6299 21.2803c-0.650391 9.21973 -7.96973 17.0801 -19.5898 21l-60.75 20.4893c-25.1201 8.4707 -43.8398 27.4307 -50.0898 50.7402l-14.5 53.9404c-2.31055 8.62988 -10.3701 15.5195 -21.5898 18.4697
c-14.0605 3.66992 -28.8809 0.19043 -37.75 -8.86035l-41.8105 -42.5596c-16.9697 -17.2598 -42.8398 -26.4297 -68.0898 -24.3506l-65.1504 5.02051c-18.1592 1.22949 -29.75 -7.5 -34.1895 -15.5205c-3.75 -6.7998 -3.16016 -13.5996 1.78027 -20.1895l34.8994 -46.7803
c15.4004 -20.6602 17.8398 -47.5195 6.37012 -70.0996l-25.75 -50.8701c-3.45996 -6.82031 -2.70996 -13.5098 2.16016 -19.8398c6.57031 -8.52051 20.9697 -15.5 37.9697 -11.75l63.4004 13.6396c6.2793 1.35059 12.6895 2.02051 19.0293 2.02051
c18.8408 0 37.3701 -5.81055 52.0303 -16.6699l49.2197 -36.4502c13.6201 -10.0801 30.4307 -8.20996 40.6201 -3.58008c4.4707 2.03027 14.9404 7.97949 15.8105 19.3594l4.25 55.2402c1.87012 24.3105 17.1494 45.9902 40.8994 57.9697z" />
    <glyph glyph-name="spray-can" unicode="&#xf5bd;" 
d="M480 320c17.6699 0 32 -14.3301 32 -32s-14.3301 -32 -32 -32s-32 14.3301 -32 32s14.3301 32 32 32zM480 224c17.6699 0 32 -14.3301 32 -32s-14.3301 -32 -32 -32s-32 14.3301 -32 32s14.3301 32 32 32zM480 352c-17.6699 0 -32 14.3301 -32 32s14.3301 32 32 32
s32 -14.3301 32 -32s-14.3301 -32 -32 -32zM384 320c17.6699 0 32 -14.3301 32 -32s-14.3301 -32 -32 -32s-32 14.3301 -32 32s14.3301 32 32 32zM384 416c17.6699 0 32 -14.3301 32 -32s-14.3301 -32 -32 -32s-32 14.3301 -32 32s14.3301 32 32 32zM288 416
c17.6699 0 32 -14.3301 32 -32s-14.3301 -32 -32 -32s-32 14.3301 -32 32s14.3301 32 32 32zM224 320c53.0195 0 96 -42.9805 96 -96v-256c0 -17.6699 -14.3301 -32 -32 -32h-256c-17.6699 0 -32 14.3301 -32 32v256c0 53.0195 42.9805 96 96 96v96
c0 17.6699 14.3301 32 32 32h64c17.6699 0 32 -14.3301 32 -32v-96zM144 400v-80h32v80h-32zM272 -16v240c0 26.4697 -21.5303 48 -48 48h-128c-26.4697 0 -48 -21.5303 -48 -48v-240h224zM160 192c35.3496 0 64 -28.6504 64 -64s-28.6504 -64 -64 -64s-64 28.6504 -64 64
s28.6504 64 64 64z" />
    <glyph glyph-name="swimmer" unicode="&#xf5c4;" horiz-adv-x="640" 
d="M185.53 124.62l37.1699 52.0498c13.0195 18.2402 67.6895 93.9004 160.58 158.95c20.4297 14.3604 46.3096 19.5996 70.9795 14.4395l101.59 -17.9297c13.3203 -2.34961 22.1504 -14.8203 19.7607 -27.8701c-2.39062 -13.04 -15.1104 -21.6494 -28.4307 -19.3701
l-102.38 18.0801c-11.9902 2.48047 -23.7803 0.110352 -33.0898 -6.41016c-23.29 -16.3096 -44.9297 -34.46 -65.5898 -53.5791l143.49 -100.48c-13.8906 -2.91016 -27.2402 -10.04 -39.21 -21.0801c-1.39062 -1.28027 -4.41016 -2.99023 -8.30078 -4.62012l-130.59 91.4502
c-17.29 -18.7695 -33.8193 -38.2402 -48.71 -59.1104l-25.79 -36.1094c-3.87012 -0.640625 -8.2002 -1.03027 -13.0098 -1.03027c-19.1201 0 -30.8604 6.16016 -34.3896 9.41992c-1.31055 1.20996 -2.74023 2.08008 -4.08008 3.2002zM624 80c8.83984 0 16 -7.16016 16 -16
v-16c0 -8.83984 -7.16016 -16 -16 -16h-16c-38.6201 0 -72.7197 12.1797 -96 31.8398c-23.2803 -19.6494 -57.3799 -31.8398 -96 -31.8398s-72.7197 12.1797 -96 31.8398c-23.2803 -19.6494 -57.3799 -31.8398 -96 -31.8398s-72.7197 12.1797 -96 31.8398
c-23.2803 -19.6494 -57.3799 -31.8398 -96 -31.8398h-16c-8.83984 0 -16 7.16016 -16 16v16c0 8.83984 7.16016 16 16 16h16c26.04 0 45.7998 8.41992 56.0703 17.9004c8.89941 8.20996 19.6602 14.0996 31.7695 14.0996h16.2998
c12.1104 0 22.8701 -5.88965 31.7705 -14.0996c10.29 -9.48047 30.0498 -17.9004 56.0898 -17.9004s45.7998 8.41992 56.0703 17.9004c8.89941 8.20996 19.6602 14.0996 31.7695 14.0996h16.2998c12.1104 0 22.8701 -5.88965 31.7705 -14.0996
c10.29 -9.48047 30.0498 -17.9004 56.0898 -17.9004s45.7998 8.41992 56.0703 17.9004c8.89941 8.20996 19.6602 14.0996 31.7695 14.0996h16.2998c12.1104 0 22.8701 -5.88965 31.7705 -14.0996c10.29 -9.48047 30.0498 -17.9004 56.0898 -17.9004h16zM128 160
c-53.0195 0 -96 42.9805 -96 96s42.9805 96 96 96s96 -42.9805 96 -96s-42.9805 -96 -96 -96zM128 304c-26.4697 0 -48 -21.5303 -48 -48s21.5303 -48 48 -48s48 21.5303 48 48s-21.5303 48 -48 48z" />
    <glyph glyph-name="swimming-pool" unicode="&#xf5c5;" horiz-adv-x="640" 
d="M624 16c8.83984 0 16 -7.16016 16 -16v-16c0 -8.83984 -7.16016 -16 -16 -16h-16c-38.6201 0 -72.7197 12.1797 -96 31.8398c-23.2803 -19.6494 -57.3799 -31.8398 -96 -31.8398s-72.7197 12.1797 -96 31.8398c-23.2803 -19.6494 -57.3799 -31.8398 -96 -31.8398
s-72.7197 12.1797 -96 31.8398c-23.2803 -19.6494 -57.3799 -31.8398 -96 -31.8398h-16c-8.83984 0 -16 7.16016 -16 16v16c0 8.83984 7.16016 16 16 16h16c26.04 0 45.7998 8.41992 56.0703 17.9004c8.89941 8.20996 19.6602 14.0996 31.7695 14.0996h16.2998
c12.1104 0 22.8701 -5.88965 31.7705 -14.0996c10.29 -9.48047 30.0498 -17.9004 56.0898 -17.9004s45.7998 8.41992 56.0703 17.9004c8.89941 8.20996 19.6602 14.0996 31.7695 14.0996h16.2998c12.1104 0 22.8701 -5.88965 31.7705 -14.0996
c10.29 -9.48047 30.0498 -17.9004 56.0898 -17.9004s45.7998 8.41992 56.0703 17.9004c8.89941 8.20996 19.6602 14.0996 31.7695 14.0996h16.2998c12.1104 0 22.8701 -5.88965 31.7705 -14.0996c10.29 -9.48047 30.0498 -17.9004 56.0898 -17.9004h16zM216 48.6299
c-14.2197 1.41992 -23.4102 6.04004 -26.3896 8.7998c-6.79004 6.26074 -14.0908 10.9805 -21.6104 14.6699v255.9c0 48.5303 39.4697 88 88 88s88 -39.4697 88 -88v-24c0 -8.83984 -7.16016 -16 -16 -16h-16c-8.83984 0 -16 7.16016 -16 16v24
c0 22.0596 -17.9404 40 -40 40s-40 -17.9404 -40 -40v-120h208v120c0 48.5303 39.4697 88 88 88s88 -39.4697 88 -88v-24c0 -8.83984 -7.16016 -16 -16 -16h-16c-8.83984 0 -16 7.16016 -16 16v24c0 22.0596 -17.9404 40 -40 40s-40 -17.9404 -40 -40v-255.91
c-7.51953 -3.68945 -14.8203 -8.41016 -21.6104 -14.6699c-2.98926 -2.75 -12.1699 -7.36035 -26.3896 -8.79004v111.37h-208v-111.37z" />
    <glyph glyph-name="tint-slash" unicode="&#xf5c7;" horiz-adv-x="640" 
d="M633.99 -23.0098c6.91016 -5.53027 8.01953 -15.6006 2.5 -22.5l-10 -12.4902c-5.53027 -6.88965 -15.5898 -8.00977 -22.4902 -2.49023l-598 467.51c-6.90039 5.52051 -8.01953 15.5908 -2.49023 22.4902l10 12.4902c5.52051 6.90039 15.5898 8.00977 22.4902 2.49023z
M320 364.34c-8.88965 -21.79 -18.71 -40.75 -28.7197 -58.5l-38.1201 29.7998c14.04 25.8008 27.1797 55.0703 37.6201 90.2705c4.4502 14.8896 16.8398 22.0898 29.1895 22.0898c12.6406 0 25.2402 -7.54004 29.25 -22.0898c41.8105 -141.03 125.25 -189.601 143.17 -277.3
l-84.2393 65.8594c-3.79004 5.52051 -7.75 11.21 -11.9502 17.21c-24.1807 34.5605 -53.0498 75.8301 -76.2002 132.66zM320 -16c37.46 0 70.8799 16.7305 94.3096 42.8799l38.1709 -29.8398c-32.25 -37.3496 -79.5508 -61.04 -132.48 -61.04
c-97.2803 0 -176 79.6504 -176 178.09c0 39.1904 12.5498 69.8906 30.7002 100.13l38.0596 -29.7598c-13.0293 -22.7197 -20.7598 -44.0195 -20.7598 -70.3701c0 -71.7295 57.4199 -130.09 128 -130.09z" />
    <glyph glyph-name="tooth" unicode="&#xf5c9;" horiz-adv-x="448" 
d="M443.96 351.8c9.59961 -39.54 1.95996 -78.7598 -21.5098 -110.47c-20.5 -27.7002 -32.0303 -61.8105 -36.2803 -107.35c-3.59961 -38.6904 -9.25977 -89.6104 -20.9297 -140.32l-7.7998 -33.9697c-3.2207 -13.9502 -15.4209 -23.6904 -29.6709 -23.6904
c-13.9697 0 -26.1191 9.5 -29.5498 23.1104l-34.46 138.479c-4.55957 18.3506 -20.9199 31.1602 -39.7598 31.1602s-35.1797 -12.8096 -39.7402 -31.1602l-34.4795 -138.43c-3.41992 -13.6602 -15.5703 -23.1602 -29.54 -23.1602
c-14.25 0 -26.4502 9.73047 -29.6699 23.6699l-7.80078 33.9902c-11.6699 50.7002 -17.3193 101.63 -20.9297 140.32c-4.25 45.5293 -15.7803 79.6396 -36.29 107.35c-23.46 31.71 -31.0996 70.9297 -21.5098 110.45c11.04 45.2998 47.1504 82.0898 92 93.7295
c26.8799 6.9502 56.29 -0.910156 87.25 -23.1494c0.0898438 -0.0605469 0.200195 -0.0507812 0.299805 -0.110352c23.3105 -14.4902 34.1504 -14.2402 40.4297 -14.3604c13.6104 0.280273 27.3604 4.87988 38.8105 13.3008c31.6699 23.2793 61.6797 31.4697 89.1602 24.3096
c44.8398 -11.6299 80.9395 -48.4102 91.9697 -93.7002zM383.87 269.9c14.8604 20.0693 19.6396 45.1191 13.4297 70.5098c-6.88965 28.3301 -29.4297 51.3496 -57.4102 58.5996c-13.5098 3.60059 -29.4092 -2.37012 -48.6299 -16.5293
c-7.17969 -5.27051 -15 -9.35059 -23.0801 -12.8203l8.45996 -5.25977c11.2607 -7 14.71 -21.8008 7.73047 -33.0508c-4.54004 -7.31934 -12.3896 -11.3398 -20.4004 -11.3398c-4.33008 0 -8.7002 1.16016 -12.6396 3.61035
c-117.58 73.0498 -119.561 76.3994 -135.48 76.3994c-2.60938 0 -5.21973 -0.319336 -7.75 -0.979492c-27.9893 -7.27051 -50.54 -30.2803 -57.4395 -58.6299c-6.16992 -25.4102 -1.39062 -50.46 13.4502 -70.5205c25.9492 -35.0498 40.3994 -76.8193 45.4893 -131.449
c2.52051 -26.8408 6.04004 -59.7705 11.9404 -94.0205l16.1396 64.75c9.89062 39.79 45.3906 67.5703 86.3203 67.5703c40.9102 0 76.4102 -27.7803 86.3301 -67.5498l16.1201 -64.75c5.91016 34.2695 9.41992 67.1592 11.9395 94.0098
c5.10059 54.6299 19.5508 96.3994 45.4805 131.45z" />
    <glyph glyph-name="umbrella-beach" unicode="&#xf5ca;" horiz-adv-x="640" 
d="M443.48 429.92c123.659 -45.0098 199.46 -163.2 196.43 -287.86c-0.209961 -8.79004 -7.77051 -15.1396 -16.04 -15.1396c-1.83008 0 -3.7002 0.310547 -5.53027 0.980469l-228.66 83.2197l-83.6699 -227.12h253.99c8.83984 0 16 -7.16016 16 -16v-16
c0 -8.83984 -7.16016 -16 -16 -16h-544c-8.83984 0 -16 7.16016 -16 16v16c0 8.83984 7.16016 16 16 16h238.84l89.7305 243.55l-229.181 83.4102c-10.0898 3.66992 -14.1201 16.3203 -7.41992 24.71c56.6006 70.8799 142.971 112.33 233.44 112.33
c33.8994 0 68.3594 -5.80957 102.07 -18.0801zM452.58 239.31c5.32031 28.5107 7 55.8506 4.22949 79.96c-4 34.7002 -16.3096 58.2402 -33.8398 64.6201c-17.3799 6.39062 -42.0693 -3.73926 -67.4102 -27.7695c-17.6191 -16.6797 -33.9092 -38.71 -48.1592 -63.9697z
M177.95 339.26l84.2598 -30.6699c33.4297 62.5498 65.8203 87.2402 70.29 91c-56.7402 -2.08984 -111.66 -23.6699 -154.55 -60.3301zM497.77 222.86l90.9805 -33.1104c-9.73047 59.7197 -41.0996 113.11 -86.8701 151.39c7.9502 -41.21 3.27051 -83.21 -4.11035 -118.279z
" />
    <glyph glyph-name="vector-square" unicode="&#xf5cb;" 
d="M480 288h-16v-192h16c17.6699 0 32 -14.3301 32 -32v-96c0 -17.6699 -14.3301 -32 -32 -32h-96c-17.6699 0 -32 14.3301 -32 32v16h-192v-16c0 -17.6699 -14.3301 -32 -32 -32h-96c-17.6699 0 -32 14.3301 -32 32v96c0 17.6699 14.3301 32 32 32h16v192h-16
c-17.6699 0 -32 14.3301 -32 32v96c0 17.6699 14.3301 32 32 32h96c17.6699 0 32 -14.3301 32 -32v-16h192v16c0 17.6699 14.3301 32 32 32h96c17.6699 0 32 -14.3301 32 -32v-96c0 -17.6699 -14.3301 -32 -32 -32zM400 400v-64h64v64h-64zM48 400v-64h64v64h-64zM112 -16
v64h-64v-64h64zM464 -16v64h-64v-64h64zM416 96v192h-32c-17.6699 0 -32 14.3301 -32 32v32h-192v-32c0 -17.6699 -14.3301 -32 -32 -32h-32v-192h32c17.6699 0 32 -14.3301 32 -32v-32h192v32c0 17.6699 14.3301 32 32 32h32z" />
    <glyph glyph-name="weight-hanging" unicode="&#xf5cd;" 
d="M510.28 2.13965c8.33008 -33.3096 -14.6602 -66.1396 -46.2998 -66.1396h-415.95c-31.6504 0 -54.6406 32.8301 -46.3105 66.1396l73.0498 292.13c3.79004 15.1807 16.4404 25.7207 30.8701 25.7207h72.4102c-6.20996 12.0498 -10.04 25.5098 -10.04 40
c0 48.5996 39.4004 88 88 88c48.6006 0 88 -39.4004 88 -88c0 -14.4902 -3.83984 -27.9502 -10.04 -40h72.4102c14.4297 0 27.0703 -10.5303 30.8701 -25.7207zM216 360c0 -22.0498 17.9404 -40 40 -40s40 17.9502 40 40c0 22.0596 -17.9404 40 -40 40s-40 -17.9404 -40 -40
zM462.72 -16c0.700195 0.959961 1.81055 3.23047 1 6.5l-70.3799 281.5h-274.68l-70.3799 -281.5c-0.810547 -3.26953 0.299805 -5.54004 1 -6.5h413.439z" />
  </font>
</defs>
</svg>
