<?xml version="1.0" standalone="no"?>
<!DOCTYPE svg PUBLIC "-//W3C//DTD SVG 1.1//EN" "http://www.w3.org/Graphics/SVG/1.1/DTD/svg11.dtd" >
<svg xmlns="http://www.w3.org/2000/svg" xmlns:xlink="http://www.w3.org/1999/xlink" version="1.1">
<metadata>
Created by FontForge 20200314 at Mon Oct  5 09:52:15 2020
 By Robert Madole
Copyright (c) Font Awesome
</metadata>
<!-- Font Awesome Pro 5.15.1 by @fontawesome - https://fontawesome.com License - https://fontawesome.com/license (Commercial License) --><defs>
<font id="FontAwesome5Pro-Solid" horiz-adv-x="512" >
  <font-face 
    font-family="Font Awesome 5 Pro Solid"
    font-weight="900"
    font-stretch="normal"
    units-per-em="512"
    panose-1="2 0 5 3 0 0 0 0 0 0"
    ascent="448"
    descent="-64"
    bbox="-0.0105445 -64.0098 640.01 448.034"
    underline-thickness="25"
    underline-position="-50"
    unicode-range="U+0020-F8FF"
  />
    <missing-glyph />
    <glyph glyph-name="book-heart" unicode="&#xf499;" horiz-adv-x="448" 
d="M448 88c0 -7.5 -3.5 -14.2998 -8.90039 -18.5996c-4.19922 -15.4004 -4.19922 -59.3008 0 -74.7002c5.40039 -4.40039 8.90039 -11.2002 8.90039 -18.7002v-16c0 -13.2998 -10.7002 -24 -24 -24h-328c-53 0 -96 43 -96 96v320c0 53 43 96 96 96h328
c13.2998 0 24 -10.7002 24 -24v-336zM149.8 338.9c-27.5 -23 -29 -64.2002 -4.5 -89.1006l84.7002 -85.5996c5.5 -5.5 14.2998 -5.5 19.7998 0l84.7002 85.5996c24.5996 24.9004 23.2002 66.1006 -4.2998 89.1006c-23.9004 20 -59.6006 16.3994 -81.6006 -5.80078
l-8.59961 -8.69922l-8.59961 8.69922c-21.9004 22.2002 -57.6006 25.8008 -81.6006 5.80078zM381.4 0c-1.90039 17.0996 -1.90039 46.9004 0 64h-285.4c-17.5996 0 -32 -14.4004 -32 -32c0 -17.7002 14.2998 -32 32 -32h285.4z" />
    <glyph glyph-name="menorah" unicode="&#xf676;" horiz-adv-x="640" 
d="M144 320c8.83984 0 16 -7.16016 16 -16v-144h-64v144c0 8.83984 7.16016 16 16 16h32zM240 320c8.83984 0 16 -7.16016 16 -16v-144h-64v144c0 8.83984 7.16016 16 16 16h32zM432 320c8.83984 0 16 -7.16016 16 -16v-144h-64v144c0 8.83984 7.16016 16 16 16h32zM528 320
c8.83984 0 16 -7.16016 16 -16v-144h-64v144c0 8.83984 7.16016 16 16 16h32zM608 352c-17.6699 0 -32 14.3301 -32 32s32 64 32 64s32 -46.3301 32 -64s-14.3301 -32 -32 -32zM512 352c-17.6699 0 -32 14.3301 -32 32s32 64 32 64s32 -46.3301 32 -64s-14.3301 -32 -32 -32
zM416 352c-17.6699 0 -32 14.3301 -32 32s32 64 32 64s32 -46.3301 32 -64s-14.3301 -32 -32 -32zM320 352c-17.6699 0 -32 14.3301 -32 32s32 64 32 64s32 -46.3301 32 -64s-14.3301 -32 -32 -32zM224 352c-17.6699 0 -32 14.3301 -32 32s32 64 32 64s32 -46.3301 32 -64
s-14.3301 -32 -32 -32zM128 352c-17.6699 0 -32 14.3301 -32 32s32 64 32 64s32 -46.3301 32 -64s-14.3301 -32 -32 -32zM32 352c-17.6699 0 -32 14.3301 -32 32s32 64 32 64s32 -46.3301 32 -64s-14.3301 -32 -32 -32zM576 160v144c0 8.83984 7.16016 16 16 16h32
c8.83984 0 16 -7.16016 16 -16v-144c0 -53.0195 -42.9805 -96 -96 -96h-192v-64h176c8.83984 0 16 -7.16016 16 -16v-32c0 -8.83984 -7.16016 -16 -16 -16h-416c-8.83984 0 -16 7.16016 -16 16v32c0 8.83984 7.16016 16 16 16h176v64h-192c-53.0195 0 -96 42.9805 -96 96
v144c0 8.83984 7.16016 16 16 16h32c8.83984 0 16 -7.16016 16 -16v-144c0 -17.6699 14.3301 -32 32 -32h192v176c0 8.83984 7.16016 16 16 16h32c8.83984 0 16 -7.16016 16 -16v-176h192c17.6699 0 32 14.3301 32 32z" />
    <glyph glyph-name="acorn" unicode="&#xf6ae;" horiz-adv-x="448" 
d="M175.11 -39.5498c-87.71 43.8496 -143.11 133.49 -143.11 231.55h384c0 -98.0596 -55.4004 -187.7 -143.11 -231.55l-48.8896 -24.4502zM352 384c53.0195 0 96 -42.9805 96 -96.0098v-32c0 -17.6699 -14.3301 -32 -32 -32h-384c-17.6699 0 -32 14.3301 -32 32v32
c0 53.0195 42.9805 96 96 96h106.02c4.84082 21.5898 14.6406 41.8496 29.3906 58.6494c2.80957 3.2207 6.92969 5.16016 11.3096 5.30078c4.25 0.419922 8.85059 -1.56055 11.9707 -4.7207l11.3496 -11.3193c5.92969 -5.9502 6.17969 -15.3408 0.620117 -21.8604
c-6.69043 -7.86035 -11.7598 -16.6396 -15.1602 -26.04h100.5z" />
    <glyph glyph-name="alicorn" unicode="&#xf6b0;" horiz-adv-x="640" 
d="M631.98 416c7.91992 0 11.0293 -10.2695 4.43945 -14.6504l-92.4199 -36.6494l0.0498047 -71.0098c0 -0.0107422 0.0185547 -0.00683594 0.0185547 -0.0166016c0 -13.4707 -8.34277 -25.0088 -20.1387 -29.7236l-32.5498 -13.0205
c-15.4395 -6.17969 -33.04 0.5 -40.4902 15.3701l-18.8994 37.7002l-16 7.11035v-102.471c0.00976562 -0.219727 0.0800781 -0.419922 0.0800781 -0.639648c0 -30.4697 -12.2607 -58.0303 -32 -78.2197v-177.78c0 -8.83984 -7.16016 -16 -16 -16h-64
c-8.83984 0 -16 7.16016 -16 16v150.4l-102.04 22.3301l-23.8398 -63.5908l26.3096 -105.26c2.53027 -10.0996 -5.11035 -19.8799 -15.5195 -19.8799h-65.9609c-7.48633 0 -13.7783 5.16602 -15.5098 12.1201l-24.8496 99.4102
c-1.24707 4.98047 -1.8916 10.1924 -1.8916 15.5576c0 7.8916 1.43262 15.4502 4.05176 22.4316l25.7197 68.6006c-18.7002 17.5195 -30.54 42.2402 -30.54 69.8799c0 2.62988 0.570312 5.09961 0.780273 7.67969c-9.91016 -7.29004 -16.7803 -18.46 -16.7803 -31.6797v-56
c0 -8.83984 -7.16016 -16 -16 -16h-16c-8.83984 0 -16 7.16016 -16 16v56c0 48.5303 39.4697 88 88 88v-1.12012c4.58008 5.24023 9.75 9.92969 15.3301 14.1006c18.8701 -59.3203 75.7803 -108.99 152.67 -108.99v3.16992c-76.9902 14.6494 -128 80.7002 -128 147.74
c0 24.2998 5.49023 47.2793 15.2197 67.8691c3.43066 7.26074 13.8203 6.85059 17.04 -0.5c23.46 -53.4893 63.7402 -90.2695 127.66 -90.2695h0.0800781c0 70.6904 57.3096 128 128 128h119.97c5.06055 0 8.9502 -4.67969 7.94043 -9.63965
c-1.78027 -8.73047 -6.25 -16.2207 -12.1797 -22.3604h100.25zM480 352c8.83984 0 16 7.16016 16 16s-7.16016 16 -16 16s-16 -7.16016 -16 -16s7.16016 -16 16 -16z" />
    <glyph glyph-name="apple-crate" unicode="&#xf6b1;" 
d="M318.2 256c3.56934 32.6104 -1.33008 74.7598 -22.1699 104.91c-1.66992 2.41016 -3.68066 4.37012 -5.5 6.58008c18.7002 -0.810547 44.1396 -8.27051 61.1494 -17.79c20.5898 11.5098 54.3604 20.7197 72.4902 17.6895
c48.6699 -8.73926 59.0801 -71.9199 53.8203 -111.39h-159.79zM210.53 397.53c-12.25 -11.4307 -31.5498 -14.5107 -50.0205 -13.2803c-0.549805 3.86035 -3.30957 33.6201 13.2207 50.2197c14.3496 13.4004 37.1396 14.1406 50.0195 13.2803
c1.20996 -18.1904 -1.92969 -38.0303 -13.2197 -50.2197zM402.22 397.53c-12.25 -11.4307 -31.5498 -14.5107 -50.0195 -13.2803c-0.549805 3.86035 -3.31055 33.6201 13.2197 50.2197c14.3496 13.4004 37.1396 14.1406 50.0205 13.2803
c1.20996 -18.1904 -1.93066 -38.0303 -13.2207 -50.2197zM286.3 256h-252.6c-5.16992 39.1201 5.20996 102.66 53.8193 111.39c18.0508 3.02051 51.8203 -6.12988 72.4805 -17.6895c20.5801 11.5098 54.3496 20.7197 72.4805 17.6895
c48.6699 -8.73926 59.0791 -71.9199 53.8193 -111.39zM496 224c8.83984 0 16 -7.16016 16 -16v-112h-512v112c0 8.83984 7.16016 16 16 16h480zM64 144c8.83984 0 16 7.16016 16 16s-7.16016 16 -16 16s-16 -7.16016 -16 -16s7.16016 -16 16 -16zM448 144
c8.83984 0 16 7.16016 16 16s-7.16016 16 -16 16s-16 -7.16016 -16 -16s7.16016 -16 16 -16zM0 -48v112h512v-112c0 -8.83984 -7.16016 -16 -16 -16h-480c-8.83984 0 -16 7.16016 -16 16zM448 16c-8.83984 0 -16 -7.16016 -16 -16s7.16016 -16 16 -16s16 7.16016 16 16
s-7.16016 16 -16 16zM64 16c-8.83984 0 -16 -7.16016 -16 -16s7.16016 -16 16 -16s16 7.16016 16 16s-7.16016 16 -16 16z" />
    <glyph glyph-name="axe" unicode="&#xf6b2;" horiz-adv-x="640" 
d="M4.69043 8.57031l235.88 235.87l67.8799 -67.8809l-235.87 -235.869c-6.25 -6.25 -16.3799 -6.25 -22.6299 0l-45.2598 45.25c-6.25 6.25 -6.25 16.3799 0 22.6299zM525.74 288h114.26v-32c0 -123.71 -100.29 -224 -224 -224h-32v114.26l-150.63 150.63
c-12.5 12.4902 -12.5 32.75 0 45.25l96.4902 96.4902c6.25 6.25 14.4395 9.37012 22.6299 9.37012c8.18945 0 16.3799 -3.12012 22.6299 -9.37012l29.8096 -29.8203l34.5 34.5c6.25 6.25 16.3799 6.25 22.6299 0l45.25 -45.25c6.25 -6.25 6.25 -16.3799 0 -22.6299
l-34.5 -34.5zM448 99.21c62.5996 12.7598 112.03 62.1904 124.78 124.78h-37.9404c-16.2402 -39.2803 -47.5596 -70.5898 -86.8398 -86.8398v-37.9404z" />
    <glyph glyph-name="axe-battle" unicode="&#xf6b3;" 
d="M512 287.08l-62.7598 -31.0801l62.7598 -31.0801c-6.83984 -61.7695 -33.5996 -116.63 -73.0596 -156.22c-9.20996 -9.25 -23.8906 -4.12012 -27.0605 8.95996c-12.0303 49.6699 -47.25 88.2695 -91.8799 101.229v154.221c44.6299 12.96 79.8496 51.5596 91.8799 101.229
c3.16992 13.0801 17.8506 18.21 27.0605 8.95996c39.46 -39.5898 66.2197 -94.46 73.0596 -156.22zM101 434.34c11.9199 -49.6699 46.79 -88.2695 91 -101.229v-154.221c-44.21 -12.96 -79.0801 -51.5596 -91 -101.229c-3.13965 -13.0801 -17.6699 -18.21 -26.7998 -8.95996
c-45.5303 46.1299 -74.2002 112.92 -74.2002 187.3s28.6699 141.17 74.2002 187.3c9.12012 9.24023 23.6602 4.12012 26.7998 -8.95996zM272 384c8.83984 0 16 -7.16016 16 -16v-416c0 -8.83984 -7.16016 -16 -16 -16h-32c-8.83984 0 -16 7.16016 -16 16v416
c0 8.83984 7.16016 16 16 16h32z" />
    <glyph glyph-name="bat" unicode="&#xf6b5;" horiz-adv-x="640" 
d="M558.44 318.3l81.5596 -190.3l-49.6299 16.54c-27.3799 9.12988 -57.4805 -1.2002 -73.4902 -25.21l-36.8799 -55.3301l-11.8203 11.8203c-27.5498 27.54 -73.0898 24.3096 -96.46 -6.85059l-51.7197 -68.9697l-51.7197 68.9697
c-23.3701 31.1504 -68.9199 34.3906 -96.46 6.85059l-11.8203 -11.8203l-36.8896 55.3301c-16.0107 24.0098 -46.1104 34.3398 -73.4902 25.21l-49.6201 -16.54l81.5498 190.31c7.64062 17.8203 29.25 24.8105 45.8799 14.8301l100.74 -60.4395l27.8301 111.3l42.6602 -32
h42.6699l42.6699 32l27.8301 -111.3l100.729 60.4297c16.6309 9.98047 38.2402 2.99023 45.8809 -14.8301z" />
    <glyph glyph-name="blender-phone" unicode="&#xf6b6;" horiz-adv-x="576" 
d="M392 384c-4.41992 0 -8 -3.58008 -8 -8v-16c0 -4.41992 3.58008 -8 8 -8h157.82l-17.46 -64h-140.36c-4.41992 0 -8 -3.58008 -8 -8v-16c0 -4.41992 3.58008 -8 8 -8h131.64l-17.46 -64h-114.18c-4.41992 0 -8 -3.58008 -8 -8v-16c0 -4.41992 3.58008 -8 8 -8h105.46
l-17.46 -64h-288v352h384l-17.46 -64h-166.54zM158.8 112.99c3.00977 -7.40039 0.200195 -15.8506 -6.68945 -20.0703l-39.4102 -24.1797c-12.5303 -7.68066 -31.7803 -6 -41.6504 4.7998c-94.0996 102.94 -94.6699 258.89 -2.09961 362.49
c11.1396 12.4697 29.5596 15.8398 43.8896 7.0498l39.2803 -24.0996c6.87988 -4.2207 9.7002 -12.6807 6.67969 -20.0703l-25.7803 -63.2598c-2.7793 -6.80078 -9.80957 -10.9902 -17.2393 -10.2607l-45.0303 4.41992c-17.6504 -47.9395 -17.2803 -100.779 0 -147.72
l45.0303 4.41992c7.43945 0.730469 14.46 -3.4502 17.2393 -10.2598zM480 64c35.3496 0 64 -28.6504 64 -64v-32c0 -17.6699 -14.3301 -32 -32 -32h-352c-17.6699 0 -32 14.3301 -32 32v32c0 35.3496 28.6504 64 64 64h288zM336 -32c17.6699 0 32 14.3301 32 32
s-14.3301 32 -32 32s-32 -14.3301 -32 -32s14.3301 -32 32 -32z" />
    <glyph glyph-name="book-dead" unicode="&#xf6b7;" horiz-adv-x="448" 
d="M272 312c-8.7998 0 -16 7.2002 -16 16s7.2002 16 16 16s16 -7.2002 16 -16s-7.2002 -16 -16 -16zM448 89.5996c0 -9.59961 -3.2002 -16 -9.59961 -19.1992c-3.2002 -12.8008 -3.2002 -57.6006 0 -73.6006c6.39941 -6.39941 9.59961 -12.7998 9.59961 -19.2002v-16
c0 -16 -12.7998 -25.5996 -25.5996 -25.5996h-326.4c-54.4004 0 -96 41.5996 -96 96v320c0 54.4004 41.5996 96 96 96h326.4c16 0 25.5996 -9.59961 25.5996 -25.5996v-332.801zM240 392c-44.2002 0 -80 -28.7002 -80 -64c0 -20.9004 12.7002 -39.2002 32 -50.9004v-13.0996
c0 -8.7998 7.2002 -16 16 -16h64c8.7998 0 16 7.2002 16 16v13.0996c19.2998 11.7002 32 30 32 50.9004c0 35.2998 -35.7998 64 -80 64zM124.8 224.7c-1.7002 -4.10059 0.100586 -8.7998 4.2002 -10.5l70.5 -30.2998l-70.4004 -30.1006
c-4.09961 -1.7002 -5.89941 -6.39941 -4.19922 -10.5l6.2998 -14.7002c1.7002 -4.09961 6.39941 -5.89941 10.5 -4.19922l98.2998 42.1992l98.2998 -42.0996c4.10059 -1.7002 8.7998 0.0996094 10.5 4.2002l6.2998 14.7002c1.7002 4.09961 -0.0996094 8.7998 -4.19922 10.5
l-70.3008 30.0996l70.3008 30.2002c4.09961 1.7002 5.89941 6.39941 4.19922 10.5l-6.2998 14.7002c-1.7002 4.09961 -6.39941 5.89941 -10.5 4.19922l-98.3994 -42.0996l-98.3008 42.0996c-4.09961 1.7002 -8.7998 -0.0996094 -10.5 -4.19922zM380.8 0v64h-284.8
c-16 0 -32 -12.7998 -32 -32s12.7998 -32 32 -32h284.8zM208 312c-8.7998 0 -16 7.2002 -16 16s7.2002 16 16 16s16 -7.2002 16 -16s-7.2002 -16 -16 -16z" />
    <glyph glyph-name="book-spells" unicode="&#xf6b8;" horiz-adv-x="448" 
d="M448 89.5996c0 -9.59961 -3.2002 -16 -9.59961 -19.1992c-3.2002 -12.8008 -3.2002 -57.6006 0 -73.6006c6.39941 -6.39941 9.59961 -12.7998 9.59961 -19.2002v-16c0 -16 -12.7998 -25.5996 -25.5996 -25.5996h-326.4c-54.4004 0 -96 41.5996 -96 96v320
c0 54.4004 41.5996 96 96 96h326.4c16 0 25.5996 -9.59961 25.5996 -25.5996v-332.801zM272 288l-26.6602 -53.3301l-53.3398 -26.6699l53.3398 -26.6699l26.6602 -53.3301l26.6602 53.3301l53.3398 26.6699l-53.3398 26.6699zM160 352l-32 -16l32 -16l16 -32l16 32l32 16
l-32 16l-16 32zM380.8 0v64h-284.8c-16 0 -32 -12.7998 -32 -32s12.7998 -32 32 -32h284.8z" />
    <glyph glyph-name="bow-arrow" unicode="&#xf6b9;" 
d="M145.78 160.97l-141.09 141.09c-6.25 6.25 -6.25 16.3809 0 22.6309l22.6191 22.6191c6.25 6.25 16.3809 6.25 22.6309 0l3.89941 -3.89941c40.8701 26.3203 88.3799 40.5898 138.16 40.5898c49.2998 0 96.3496 -14.0303 136.94 -39.8604l-46.6104 -46.6094
c-27.4697 14.6797 -58.2998 22.4697 -90.3301 22.4697c-32.5098 0 -63.7598 -8.08008 -91.54 -23.2002l90.5801 -90.5801zM408.14 265.61c25.8301 -40.5908 39.8604 -87.6504 39.8604 -136.94c0 -49.7803 -14.2598 -97.2998 -40.5898 -138.16l4.57031 -4.56934
c6.25 -6.25 6.25 -16.3809 0 -22.6309l-22.6309 -22.6299c-6.25 -6.25 -16.3799 -6.25 -22.6299 0l-141.76 141.761l45.2598 45.2598l90.5801 -90.5801c15.1201 27.7803 23.2002 59.04 23.2002 91.5498c0 32.0303 -7.79004 62.8604 -22.4697 90.3301zM493.22 447.69
c10.9805 2.18945 20.6602 -7.49023 18.4902 -18.4707l-25.7197 -128.59c-2.45996 -12.29 -17.6299 -16.8799 -26.4902 -8.01953l-34.4697 34.4697l-250.641 -250.64l16.5703 -49.7002c0.680664 -2.04199 1.05762 -4.23242 1.05762 -6.50293
c0 -5.6748 -2.30469 -10.8154 -6.02734 -14.5371l-63.6699 -63.6699c-10.8105 -10.7998 -29.21 -6.45996 -34.04 8.04004l-18.5498 55.6494l-55.6602 18.5498c-14.5 4.84082 -18.8398 23.2402 -8.04004 34.04l63.6699 63.6807
c3.72363 3.7168 8.86914 6.00879 14.541 6.00879c2.27051 0 4.45605 -0.368164 6.49902 -1.04883l49.7002 -16.5703l250.64 250.63l-34.4697 34.4707c-8.86035 8.86914 -4.27051 24.0293 8.01953 26.4893z" />
    <glyph glyph-name="campfire" unicode="&#xf6ba;" 
d="M501 -2.16992c8.25977 -2.63965 12.8604 -11.6104 10.2803 -20.04l-9.35059 -30.5498c-2.58008 -8.43066 -11.3594 -13.1299 -19.6201 -10.5l-226.31 72.2402l-226.31 -72.2402c-8.25 -2.62988 -17.04 2.06934 -19.6201 10.5l-9.35059 30.5498
c-2.58008 8.42969 2.02051 17.4102 10.2803 20.04l139.97 44.6797l-139.97 44.6807c-8.25977 2.62988 -12.8604 11.6094 -10.2803 20.04l9.35059 30.5498c2.58008 8.42969 11.3594 13.1299 19.6201 10.5l226.31 -72.2402l226.31 72.2402
c8.25 2.62988 17.04 -2.07031 19.6201 -10.5l9.35059 -30.5498c2.58008 -8.43066 -2.02051 -17.4004 -10.2803 -20.04l-139.97 -44.6807zM256 128c-79.5303 0 -144 64.4697 -144 144c0 44.7803 44.8301 119.02 108 176c24.6104 -22.21 46.3398 -46.0098 63.8604 -69.4805
c10.6895 12.7305 22.7695 25.4209 36.1396 37.4805c46.5801 -42.04 80 -110.71 80 -144c0 -79.5303 -64.4697 -144 -144 -144zM220.5 355.52c-29.6396 -37.1299 -44.5 -58.8594 -44.5 -83.5195c0 -49.5098 35.8896 -80 80 -80c17.6396 0 33.9697 5.74023 47.21 15.4297
c30.0996 22 37.1504 64.6602 20.4404 97.9902c-2.06055 4.11035 -4.36035 8.38965 -6.89062 12.7598l-35.8398 -42.7197s-56.1895 74.9697 -60.4199 80.0596z" />
    <glyph glyph-name="campground" unicode="&#xf6bb;" horiz-adv-x="640" 
d="M624 0c8.83984 0 16 -7.16016 16 -16v-32c0 -8.83984 -7.16016 -16 -16 -16h-608c-8.83984 0 -16 7.16016 -16 16v32c0 8.83984 7.16016 16 16 16h24.6797l239.79 330.25l-53.4102 73.5498c-5.19922 7.15039 -3.60938 17.1602 3.54004 22.3506l25.8809 18.7998
c7.14941 5.18945 17.1592 3.59961 22.3496 -3.5498l41.1699 -56.7002l41.1602 56.6895c5.2002 7.16016 15.2002 8.74023 22.3496 3.55078l25.9004 -18.79c7.14941 -5.19043 8.72949 -15.2002 3.54004 -22.3506l-53.4102 -73.5498l239.78 -330.25h24.6797zM320 160
l-116.36 -160h232.721z" />
    <glyph glyph-name="candle-holder" unicode="&#xf6bc;" horiz-adv-x="448" 
d="M160 256c-45.9297 0 -78 32.6104 -78 79.29c0 29.8701 32.3799 74.71 78 112.71c45.4102 -37.8203 78 -82.7197 78 -112.71c0 -46.6797 -32.0703 -79.29 -78 -79.29zM376 80c39.7002 0 72 -32.2998 72 -72s-32.2998 -72 -72 -72h-360c-8.83984 0 -16 7.16016 -16 16v16
c0 8.83984 7.16016 16 16 16h292.42c-2.68945 7.54004 -4.41992 15.54 -4.41992 24c0 39.7002 32.2998 72 72 72zM376 -16c13.2305 0 24 10.7695 24 24s-10.7695 24 -24 24s-24 -10.7695 -24 -24s10.7695 -24 24 -24zM256 192v-176h-192v176c0 17.6699 14.3301 32 32 32h32
v-48c0 -8.83984 7.16016 -16 16 -16s16 7.16016 16 16v48h64c17.6699 0 32 -14.3301 32 -32z" />
    <glyph glyph-name="cauldron" unicode="&#xf6bf;" horiz-adv-x="448" 
d="M448 236c0 -6.62988 -6.26953 -12 -14 -12h-19.79c21.4004 -38.5195 33.79 -81.2803 33.79 -121.6c0 -39.0801 -11.8203 -70.6504 -32 -95.5303v-46.8701c0 -13.25 -10.75 -24 -24 -24s-24 10.75 -24 24v7.49023c-38.9502 -21.2998 -89.1396 -31.4902 -144 -31.4902
s-105.05 10.1904 -144 31.4902v-7.49023c0 -13.25 -10.75 -24 -24 -24s-24 10.75 -24 24v46.8701c-20.1797 24.8799 -32 56.4502 -32 95.5303c0 40.3193 12.3896 83.0801 33.79 121.6h-19.79c-7.73047 0 -14 5.37012 -14 12v40c0 6.62988 6.26953 12 14 12h420
c7.73047 0 14 -5.37012 14 -12v-40zM160 384c-17.6699 0 -32 14.3301 -32 32s14.3301 32 32 32s32 -14.3301 32 -32s-14.3301 -32 -32 -32zM272 320c-26.5098 0 -48 21.4902 -48 48s21.4902 48 48 48s48 -21.4902 48 -48s-21.4902 -48 -48 -48z" />
    <glyph glyph-name="claw-marks" unicode="&#xf6c2;" 
d="M6.99023 223.49c56.3701 -26.75 199.41 -108.601 280.51 -280.53c2.33008 -4.92969 -4.12988 -9.34961 -7.99023 -5.49023l-117.149 117.16c-6 6 -14.1406 9.37012 -22.6299 9.37012h-43.7402v43.7305c0 8.48926 -3.37012 16.6299 -9.37012 22.6299l-85.1201 85.1299
c-3.91016 3.91016 0.490234 10.3701 5.49023 8zM246.63 418.37l-21.1299 21.1201c-3.91016 3.91016 0.490234 10.3701 5.49023 8c56.3701 -26.75 199.41 -108.601 280.52 -280.53c2.33008 -4.92969 -4.12988 -9.34961 -7.99023 -5.49023l-53.1592 53.1602
c-6 6 -14.1406 9.37012 -22.6299 9.37012h-43.7305v43.7402c0 8.49023 -3.37012 16.6299 -9.37012 22.6299l-52.2598 52.2598c-6 6 -14.1396 9.37012 -22.6299 9.37012h-43.7402v43.7402c0 8.49023 -3.37012 16.6299 -9.37012 22.6299zM204.27 327.68
c105.311 -81.6494 224.131 -203.96 306.86 -379.3c4.13965 -8.76953 -7.33984 -16.6201 -14.2002 -9.75977l-84.0098 84.0098c-6.00977 6 -14.1396 9.37012 -22.6299 9.37012h-38.29v38.29c0 8.49023 -3.37012 16.6299 -9.37012 22.6299l-89.71 89.71
c-6.00977 6 -14.1396 9.37012 -22.6299 9.37012h-38.29v38.2803c0 8.48926 -3.37012 16.6299 -9.37012 22.6299l-179.96 179.96c-6.9502 6.9502 0.870117 18.4297 9.75 14.2197c25.9502 -12.3203 62.4297 -31.4795 104.47 -58.04
c5.08008 -3.20996 11.1104 -5.0498 17.1201 -5.0498h57.9902v-31.29c0 -9.87988 4.46973 -18.9795 12.2695 -25.0303z" />
    <glyph glyph-name="coffee-togo" unicode="&#xf6c5;" horiz-adv-x="448" 
d="M432 384c8.83984 0 16 -7.16016 16 -16v-32c0 -8.83984 -7.16016 -16 -16 -16h-416c-8.83984 0 -16 7.16016 -16 16v32c0 8.83984 7.16016 16 16 16h16l23.1602 46.3096c5.25 10.502 16.0898 17.6895 28.6201 17.6904h280.439
c12.5303 -0.000976562 23.3701 -7.18848 28.6201 -17.6904l23.1602 -46.3096h16zM106.78 -64c-16.6406 0 -30.5107 12.7598 -31.8906 29.3398l-26.8896 322.66h352l-26.8896 -322.66c-1.37988 -16.5801 -15.25 -29.3398 -31.8906 -29.3398h-234.439zM327.78 192h-207.561
l13.3398 -160h180.881z" />
    <glyph glyph-name="corn" unicode="&#xf6c7;" 
d="M118.63 77.2598c83.7197 83.71 217.21 87.3105 305.21 10.79c4.94043 -4.2998 2.52051 -12.5996 -3.91016 -13.8896l-97.6602 -19.5303l-90.5098 -90.5098c-37.4902 -37.4902 -98.2695 -37.4902 -135.76 0l-45.25 45.2598zM201.03 163.15
c-38.4404 -11.8906 -74.6504 -32.8906 -105.03 -63.2705l-67.8896 -67.8896c-37.4902 37.4902 -37.4902 98.2793 0 135.77l90.5098 90.5098l19.54 97.6807c1.29004 6.41992 9.58008 8.84961 13.8701 3.91016c48.21 -55.4502 64.4199 -128.95 49 -196.71zM511.93 402.7
c-0.639648 -15.3604 -9.58984 -28.1602 -22.0996 -34.5303c8.96973 -9.92969 13.1299 -24.3301 8.96973 -38.4102c-4.16992 -13.4395 -14.7295 -23.3594 -27.2002 -27.1895c7.03027 -10.9004 8.64062 -24.9707 2.88086 -37.7705
c-5.77051 -12.7998 -17.2803 -20.7998 -30.0801 -23.0498c5.76953 -11.5195 5.43945 -25.5996 -1.59082 -37.4404c-6.72949 -11.8496 -18.8896 -18.8799 -31.6895 -19.8496c4.49023 -11.8301 3.20996 -25.5996 -4.79004 -36.7998
c-1.44043 -2.02051 -3.16992 -3.65039 -4.87012 -5.31055c-51.2295 28.5 -110.09 37.4902 -166.479 28.1309c9.43945 56.3799 0.0195312 115.21 -28.3105 166.439c2.37012 3.04004 5.0498 5.87012 8.31055 8.16992c11.1992 8 25.2793 9.28027 37.1094 4.81055
c0.959961 12.4697 7.99023 24.6396 19.8398 31.3594c11.8506 7.03027 25.9199 7.03027 37.4404 1.58984c2.25 12.4902 10.5703 24 23.3604 29.7705c12.8096 5.43945 26.8896 3.83008 37.7695 -3.2002c3.83984 12.7998 14.0703 23.0303 27.5098 26.8799
c14.0801 4.15039 28.4902 -0.00976562 38.4102 -9.59961c7.36035 14.0801 22.4004 22.7197 39.0303 21.1094c21.7598 -1.90918 37.7598 -20.4697 36.4795 -41.9092v-3.2002z" />
    <glyph glyph-name="cow" unicode="&#xf6c8;" horiz-adv-x="640" 
d="M634.01 171.28c5.15039 -7.11035 7.10059 -16.0605 5.37988 -24.6807l-21.7295 -108.63c-4.41992 -22.0801 -23.7998 -37.9697 -46.3203 -37.9697c-16.3984 0 -30.8301 8.32715 -39.2998 21.0303l-41.3301 61.9893c-6.7666 10.1465 -10.75 22.4014 -10.75 35.5v41.4805
l-32 32v-176c0 -8.83984 -7.16016 -16 -16 -16h-64c-8.83984 0 -16 7.16016 -16 16v111.97c-9.28027 -9.2793 -20.21 -16.4297 -31.9199 -21.79v-26.1797c0 -8.83984 -7.16016 -16 -16 -16s-16 7.16016 -16 16v17.3203c-19.1904 -2.37012 -22.9004 -1.12988 -32 -0.0107422
v-17.3096c0 -8.83984 -7.16016 -16 -16 -16s-16 7.16016 -16 16v26.1299c-11.7598 5.37012 -22.7197 12.5498 -32.04 21.8701v-112c0 -8.83984 -7.16016 -16 -16 -16h-64c-8.83984 0 -16 7.16016 -16 16v304c0 4.46973 0.469727 8.82031 1.33984 13.04
c-14.79 -5.87988 -25.3398 -20.1699 -25.3398 -37.04v-104c0 -35.3496 -28.6504 -64 -64 -64h-8v32c0 20.1201 9.48047 37.8604 24 49.5898v86.4102c0 48.5996 39.4004 88 88 88h318.96c31.9951 -0.000976562 60.3066 -15.5986 77.7598 -39.6904l65.8203 -90.8994
c6.83984 9.41992 15.4902 17.5996 26.3096 23.0098c10.6406 5.32031 23.1602 -2.41992 23.1602 -14.3096v-77.0205zM377.24 280.64c15.7197 15.6299 2.2998 39.3604 -22.2598 39.3604h-165.961c-24.5498 0 -37.9697 -23.7305 -22.25 -39.3604l22.8906 -22.75
c21.8096 -21.6895 51.3994 -33.8799 82.2598 -33.8799h0.169922c30.8506 0 60.4404 12.1807 82.2598 33.8799zM576.01 96c8.83008 0 16 7.16016 16 16s-7.16016 16 -16 16s-16 -7.16016 -16 -16s7.16016 -16 16 -16z" />
    <glyph glyph-name="dagger" unicode="&#xf6cb;" horiz-adv-x="384" 
d="M336 320c26.5098 0 48 -21.4902 48 -48s-21.4902 -48 -48 -48c-20.8701 0 -38.4502 13.4004 -45.0596 32h-197.881c-6.60938 -18.5996 -24.1895 -32 -45.0596 -32c-26.5098 0 -48 21.4902 -48 48s21.4902 48 48 48h112v112c0 8.83984 7.16016 16 16 16h32
c8.83984 0 16 -7.16016 16 -16v-112h112zM128 19.1602v204.84h128v-204.84l-50.6797 -76.0303c-6.33984 -9.5 -20.3008 -9.5 -26.6299 0z" />
    <glyph glyph-name="dice-d10" unicode="&#xf6cd;" 
d="M11.0898 192.71c-7.87988 -1.65039 -13.3203 8.04004 -8.08008 14.4199l191.79 233.87c6.0498 7.37988 17.4004 0.660156 14.4502 -8.54004l-67.7803 -212.5zM370.52 219.95l-67.7891 212.51c-2.93066 9.20996 8.41992 15.9199 14.46 8.5498l191.8 -233.88
c5.22949 -6.37988 -0.200195 -16.0801 -8.08984 -14.4297zM264.03 441.95l73.3994 -230.101l-81.4297 -56.7197l-81.4297 56.71l73.3994 230.11c2.57031 8.05957 13.4902 8.05957 16.0605 0zM505.19 155.73c6.88965 -1.44043 9.19922 -10.5205 3.88965 -15.3408
l-222.13 -202.199c-5.46973 -4.99023 -14.0205 -0.920898 -14.0205 6.66992v179.529l88.2002 61.4502zM6.80957 155.73l144.061 30.1094l88.2002 -61.4502v-179.52c0 -7.58984 -8.54004 -11.6504 -14.0205 -6.66992l-222.14 202.189
c-5.2998 4.82031 -2.99023 13.9004 3.89941 15.3408z" />
    <glyph glyph-name="dice-d12" unicode="&#xf6ce;" 
d="M256 174.11l108.58 -54.29l-58.8203 -183.82h-99.5293l-58.8203 183.82zM272 201.89v106.87l181.03 65.1699l51.4297 -102.84l-123.62 -123.62zM240 201.89l-108.84 -54.4297l-123.62 123.62l51.4297 102.85l181.03 -65.1699v-106.87zM422.28 396.86l-166.28 -59.8604
l-166.28 59.8604l88.7607 44.3799c8.88965 4.4502 18.6797 6.75977 28.6191 6.75977h97.79c0.0078125 0 0.0761719 -0.0371094 0.0839844 -0.0371094c10.2539 0 19.9463 -2.42188 28.5361 -6.72266zM398.05 119.43l113.95 113.94v-90.2705
c-0.00390625 -10.2588 -2.46191 -20.0205 -6.75977 -28.6191l-47.7002 -95.4004c-6.20312 -12.4033 -16.2168 -22.417 -28.6201 -28.6201l-85.8799 -42.9404zM0 233.38l113.95 -113.939l55.0098 -171.91l-85.8799 42.9395
c-12.4053 6.20117 -22.4199 16.2148 -28.6201 28.6201l-47.7002 95.4004c-4.4502 8.87988 -6.75977 18.6797 -6.75977 28.6201v90.2695z" />
    <glyph glyph-name="dice-d20" unicode="&#xf6cf;" horiz-adv-x="480" 
d="M106.75 232.94l108.64 -190.101l-208.26 22.0703c-5.83008 0.639648 -9.00977 7.13965 -5.92969 12.1396zM7.41016 132.57c-2.12012 -3.44043 -7.41016 -1.94043 -7.41016 2.08984v162.81c0 3.11035 3.38965 5.03027 6.05957 3.43066l76.6406 -45.9805zM18.25 24.4004
c-4.03027 1.97949 -2.25 8.06934 2.2002 7.56934l203.55 -22.2998v-65.6699c0 -5.83008 -6.0498 -9.70996 -11.3496 -7.25977zM99.4697 282.18l-81.5293 48.6904c-2.52051 1.51953 -2.60059 5.16016 -0.130859 6.78027l150.811 98.6094
c7.18945 4.11035 15.1201 -4.08008 10.7803 -11.1396zM240 272h-109.21l95.5801 168.38c3.12988 5.08008 8.37988 7.62012 13.6299 7.62012s10.5 -2.54004 13.6299 -7.62012l95.5801 -168.38h-109.21zM473.94 300.9c2.66992 1.59961 6.05957 -0.320312 6.05957 -3.43066
v-162.81c0 -4.04004 -5.2998 -5.54004 -7.41016 -2.10059l-75.29 122.351zM380.53 282.18l-79.9307 142.94c-4.33984 7.05957 3.59082 15.25 10.7803 11.1396l150.811 -98.5996c2.46973 -1.62012 2.39941 -5.25977 -0.130859 -6.78027zM459.55 31.9697
c4.4502 0.5 6.23047 -5.58984 2.2002 -7.55957l-194.4 -87.6602c-5.2998 -2.4502 -11.3496 1.41992 -11.3496 7.25977v65.6699zM373.25 232.94l105.56 -155.891c3.08008 -5 -0.0996094 -11.4902 -5.92969 -12.1396l-208.26 -22.0703zM240 240h100.43l-100.43 -175.75
l-100.43 175.75h100.43z" />
    <glyph glyph-name="dice-d4" unicode="&#xf6d0;" 
d="M225.28 444.66c4.70996 6.43945 14.5195 2.93945 14.5293 -5.19043v-494.939c0 -7.15039 -7.86914 -11.1104 -13.1699 -6.64062l-223.609 188.811c-3.43066 2.89941 -4.03027 8.14941 -1.35059 11.8193zM510.32 138.52
c2.68945 -3.66992 2.08984 -8.91992 -1.35059 -11.8193l-223.6 -188.811c-5.2998 -4.46973 -13.1699 -0.509766 -13.1699 6.64062v494.939c0 8.12988 9.80957 11.6299 14.5195 5.19043z" />
    <glyph glyph-name="dice-d6" unicode="&#xf6d1;" horiz-adv-x="448" 
d="M422.19 338.05c5.3291 -3.24023 5.2998 -11.2695 -0.0507812 -14.46l-198.14 -118.14l-198.13 118.14c-5.35059 3.19043 -5.37988 11.2305 -0.0605469 14.46l165.971 100.88c19.9102 12.1006 44.5195 12.1006 64.4297 0zM436.03 293.42
c5.33008 3.17969 11.9697 -0.839844 11.9697 -7.25v-197.7c0 -23.7598 -12.1104 -45.7393 -31.79 -57.7002l-152.16 -92.4795c-10.6602 -6.48047 -24.0498 1.5498 -24.0498 14.4297v223.82zM0 286.17c0 6.41016 6.63965 10.4297 11.9697 7.25l196.03 -116.88v-223.81
c0 -12.8906 -13.3799 -20.9102 -24.0498 -14.4307l-152.16 92.4697c-19.6797 11.9609 -31.79 33.9307 -31.79 57.7002v197.7z" />
    <glyph glyph-name="dice-d8" unicode="&#xf6d2;" 
d="M225.53 445.48c5.14941 5.33984 14.0498 1.61914 14.0596 -5.87012v-324.271l-234.13 85.0605c-5.66016 2.05957 -7.30957 9.39941 -3.09961 13.7695zM509.64 214.17c4.20996 -4.36035 2.56055 -11.71 -3.09961 -13.7803l-234.13 -85.0596v324.27
c0 7.5 8.91016 11.2207 14.0596 5.88086zM33.5303 137.62c-6.12012 6.33984 0.389648 16.75 8.59961 13.7695l197.46 -71.6797v-135.31c0 -7.5 -8.91016 -11.2207 -14.0596 -5.88086zM469.87 151.39c8.20996 2.98047 14.7197 -7.42969 8.59961 -13.7695l-192 -199.101
c-5.14941 -5.33984 -14.0596 -1.61914 -14.0596 5.88086v135.31z" />
    <glyph glyph-name="dragon" unicode="&#xf6d5;" horiz-adv-x="640" 
d="M18.3203 192.22c-15.96 -2.2793 -24.8906 17.8105 -12.5107 28.1406l117.4 116.34c21.7705 18.5996 53.2402 20.4697 77.0596 4.58984l119.73 -87.5996v-42.2705c0 -28.9102 5.29004 -56.9795 14.7305 -83.3799h-222.7c-14.25 0 -21.3906 17.2295 -11.3105 27.3096
l91.2803 68.6904zM575.19 158.12c41.9092 -20.96 67.1592 -64.0801 64.6396 -111.36c-3.37988 -63.2002 -59.7002 -110.77 -122.99 -110.76h-499.08c-9.80957 0 -17.7598 8 -17.7598 17.7998c0 8.32031 5.78027 15.5303 13.9004 17.3301
c89.54 19.9004 238.51 54.1006 434.1 60.9102c-59.9697 39.9902 -96 107.3 -96 179.38v108.62l-59.5801 24.8496c-5.90039 2.9502 -5.90039 11.3604 0 14.3105l59.5801 24.8398l-61.6396 50.3496c-5.04004 5.04004 -1.4707 13.6104 5.65918 13.6104h237.45
c10.0703 0 19.5498 -4.7002 25.6006 -12.7598l74.5293 -99.3799c4.00781 -5.3457 6.37988 -12.042 6.37988 -19.2305c0 -5.12988 -1.20996 -9.98047 -3.35938 -14.2803l-14.3105 -28.6191c-5.25 -10.502 -16.0889 -17.6895 -28.6191 -17.6904h-30.9707
c-8.48926 0 -16.6299 3.37012 -22.6299 9.37012l-28.0898 22.6299h-64v-36.6904c0.00195312 -18.791 10.7812 -35.0459 26.5303 -42.9199zM489.18 381.75c-4.33008 -17.1396 8.56055 -28.96 21.5205 -29.6699c11.6602 -0.629883 21.3799 7.34961 24.1299 18.2598z" />
    <glyph glyph-name="duck" unicode="&#xf6d8;" 
d="M416 224l-26.6699 -0.00976562c-3.36035 -5.95996 -5.33008 -12.6699 -5.33008 -19.79c0 -13.3604 6.4502 -25.8398 17.2998 -33.6299c31.2803 -22.46 50.5801 -60.4307 46.04 -102.86c-5.91016 -55.1904 -61.21 -99.71 -116.72 -99.71h-107.2
c-118.07 0 -214.81 91.3604 -223.39 207.25c-0.669922 9.08984 7 16.75 16.1201 16.75h50.3994c12.1504 -72.5596 74.8105 -128 150.82 -128h32c-84.7002 0 -153.37 68.6699 -153.37 153.37c0 14.46 17.7305 21.5996 27.75 10.8701
c21.5 -23.04 70.1699 -36.2402 101.68 -36.2402h21.6904c22.5801 0 40.8799 18.2998 40.8799 40.8799c0 9.75 -3.65039 19.0498 -9.90039 26.5303c-13.7295 16.4395 -22.0996 37.4395 -22.0996 60.5898c0 53.0195 42.9805 96 96 96s96 -42.9805 96 -96h64
c0 -53.0195 -42.9805 -96 -96 -96zM352 304c8.83984 0 16 7.16016 16 16s-7.16016 16 -16 16s-16 -7.16016 -16 -16s7.16016 -16 16 -16z" />
    <glyph glyph-name="dungeon" unicode="&#xf6d9;" 
d="M128.73 252.68c6.58984 -4.12012 8.89941 -12.2393 6.33984 -19.5801c-3 -8.60938 -5.15039 -17.6094 -6.24023 -26.9395c-0.929688 -7.91016 -7.0498 -14.1602 -15.0098 -14.1602h-97.1299c-9.10059 0 -16.7402 7.62988 -16.1504 16.7197
c2.0293 31.5166 9.95215 61.9062 22.4502 89.2705c3.93945 8.62012 14.8896 11.4697 22.9297 6.4502zM319.03 440c9.16992 -2.36035 13.9102 -12.5996 10.3896 -21.3896l-37.4697 -104.03c-2.28027 -6.34961 -8.2998 -10.5801 -15.0498 -10.5801h-41.8008
c-6.92773 0.00292969 -12.8281 4.41211 -15.0498 10.5801l-37.4697 104.03c-3.52051 8.79004 1.21973 19.04 10.3896 21.3896c20.1699 5.17969 41.2607 8 63.0303 8s42.8604 -2.82031 63.0303 -8zM112 160c8.83984 0 16 -7.16016 16 -16v-64
c0 -8.83984 -7.16016 -16 -16 -16h-96c-8.83984 0 -16 7.16016 -16 16v64c0 8.83984 7.16016 16 16 16h96zM112 32c8.83984 0 16 -7.16016 16 -16v-64c0 -8.83984 -7.16016 -16 -16 -16h-96c-8.83984 0 -16 7.16016 -16 16v64c0 8.83984 7.16016 16 16 16h96zM189.31 315.67
c2.85059 -7.12012 -0.0195312 -14.8799 -6.2998 -19.29c-6 -4.2002 -11.6094 -8.89941 -16.79 -14.0498c-5.4502 -5.41016 -13.5996 -6.86035 -20.1094 -2.79004l-82.9307 51.8301c-8.06934 5.04004 -10.2793 16.2002 -4.21973 23.5195
c20.0459 24.1963 44.0801 44.3428 71.6104 59.8906c8.29004 4.67969 18.8896 0.519531 22.4199 -8.31055zM398.18 192c-7.95996 0 -14.0801 6.25 -15.0098 14.1602c-1.08984 9.32031 -3.22949 18.3301 -6.24023 26.9395c-2.55957 7.34082 -0.25 15.46 6.33984 19.5801
l82.8105 51.7607c8.04004 5.01953 18.9902 2.16992 22.9297 -6.4502c12.499 -27.3633 20.4219 -57.7529 22.4502 -89.2705c0.589844 -9.08984 -7.0498 -16.7197 -16.1504 -16.7197h-97.1299zM453.03 354.89c6.06934 -7.31934 3.84961 -18.4795 -4.2207 -23.5098
l-82.9297 -51.8301c-6.50977 -4.06934 -14.6699 -2.62012 -20.1104 2.79004c-5.17969 5.15039 -10.7891 9.85059 -16.7891 14.0498c-6.28027 4.40039 -9.15039 12.1602 -6.30078 19.2803l36.3203 90.7998c3.54004 8.83008 14.1396 12.9902 22.4199 8.31055
c27.5303 -15.5479 51.5645 -35.6943 71.6104 -59.8906zM496 160c8.83984 0 16 -7.16016 16 -16v-64c0 -8.83984 -7.16016 -16 -16 -16h-96c-8.83984 0 -16 7.16016 -16 16v64c0 8.83984 7.16016 16 16 16h96zM496 32c8.83984 0 16 -7.16016 16 -16v-64
c0 -8.83984 -7.16016 -16 -16 -16h-96c-8.83984 0 -16 7.16016 -16 16v64c0 8.83984 7.16016 16 16 16h96zM240 270.38c5.23047 0.889648 10.5195 1.62012 16 1.62012s10.7695 -0.730469 16 -1.62012v-294.38c0 -4.41992 -3.58008 -8 -8 -8h-16c-4.41992 0 -8 3.58008 -8 8
v294.38zM176 228.87c8.16016 12.2998 19.2197 22.3203 32 29.7695v-282.64c0 -4.41992 -3.58008 -8 -8 -8h-16c-4.41992 0 -8 3.58008 -8 8v252.87zM304 258.64c12.7803 -7.44922 23.8398 -17.4697 32 -29.7695v-252.87c0 -4.41992 -3.58008 -8 -8 -8h-16
c-4.41992 0 -8 3.58008 -8 8v282.64z" />
    <glyph glyph-name="eye-evil" unicode="&#xf6db;" horiz-adv-x="640" 
d="M627.03 208.92c17.29 -4.68945 17.29 -29.1504 0.00976562 -33.8301l-111.87 -30.2998c-4.78027 -6.54004 -10.1104 -13.3496 -16.0703 -20.3799c1.34082 -2.08984 55.1201 -88.0498 55.1201 -88.0498c8.94043 -14.3203 -6.09961 -31.3506 -22.4502 -25.4307
l-119.77 43.3604c-9.67969 -4.80957 -19.9102 -8.91992 -30.6504 -12.3203l-44.4697 -95.2393c-6.67969 -14.3105 -27.0801 -14.3105 -33.7598 0l-44.4697 95.2393c-10.7402 3.40039 -20.9707 7.51074 -30.6504 12.3203l-119.77 -43.3604
c-16.3506 -5.91992 -31.3906 11.1104 -22.4502 25.4307c0 0 53.7793 85.96 55.1201 88.0498c-5.95996 7.03027 -11.29 13.8398 -16.0703 20.3799l-111.87 30.2998c-17.29 4.67969 -17.29 29.1504 0 33.8301l111.87 30.2998c5.16016 7.05469 10.4805 13.7998 16.1299 20.4502
c-1.33984 2.06055 -55.1797 87.9805 -55.1797 87.9805c-8.93066 14.3193 6.09961 31.3496 22.4502 25.4199l119.77 -43.3604c9.67969 4.80957 19.9102 8.91992 30.6504 12.3203l44.4697 95.2393c6.67969 14.3105 27.0801 14.3105 33.7598 0l44.4697 -95.2393
c10.7402 -3.41016 20.9707 -7.51074 30.6504 -12.3203l119.76 43.3604c16.3506 5.92969 31.3906 -11.1006 22.4502 -25.4199c0 0 -53.8301 -85.9102 -55.1797 -87.9805c5.97949 -7.0498 11.3398 -13.8896 16.1299 -20.4502zM320 96c53.0195 0 96 42.9805 96 96
c0 19.7305 -5.99023 38.0596 -16.2002 53.3096c-15.9102 -9.56934 -34.7695 -16.3291 -55.5898 -19.3291c4.41992 -9.25 7.79004 -20.4102 7.79004 -33.9805c0 -42.6699 -32 -64 -32 -64s-32 21.3301 -32 64c0 13.5703 3.37988 24.7305 7.79004 33.9805
c-20.8203 3 -39.6797 9.75977 -55.5898 19.3291c-10.21 -15.25 -16.2002 -33.5791 -16.2002 -53.3096c0 -53.0195 42.9805 -96 96 -96z" />
    <glyph glyph-name="fist-raised" unicode="&#xf6de;" horiz-adv-x="384" 
d="M255.98 288h-48.0303c-5.62988 0 -10.9502 -1.15039 -15.9697 -2.92969v146.93c0 8.83984 7.15918 16 16 16h32c8.83984 0 16 -7.16016 16 -16v-144zM383.98 192.01l0.0195312 -88.2197c0 -26.4971 -10.7412 -50.5273 -28.1201 -67.9102l-35.9102 -35.9199v-63.96
h-255.979v64l-26.5 26.5098c-24.0098 24.0098 -37.4902 56.5605 -37.4902 90.5098v77.9307c5.03027 -1.7998 10.3604 -2.9502 16 -2.9502h32c12.3301 0 23.4805 4.80957 32 12.4902c8.50977 -7.66992 19.6602 -12.4805 32 -12.4805h32
c7.91016 0 15.2803 2.11035 21.8701 5.52051c7.46973 -16.3301 21.5996 -28.9404 38.8701 -34.4502c-17.1104 -14.8203 -31.5801 -34.4805 -47.3105 -58.0801l-6.30957 -9.46973c-0.845703 -1.26855 -1.35156 -2.79395 -1.35156 -4.43164
c0 -2.77734 1.41895 -5.22559 3.57129 -6.6582l13.3105 -8.88086c1.26758 -0.845703 2.79395 -1.35156 4.43066 -1.35156c2.77734 0 5.22559 1.41992 6.65918 3.57227l6.30957 9.46973c31.8906 47.8398 51.5303 70.2695 96.0498 72.5498
c4.29004 0.219727 7.88086 3.70996 7.88086 8v16.2002c0 4.41992 -3.52051 8 -13.2002 8h-35.2607c-26.2695 0 -47.5693 21.3203 -47.5693 47.5898v0.560547c0 8.7793 7.12012 15.8496 15.8994 15.8496h112.141c35.3301 0 63.9795 -28.6504 63.9902 -63.9902zM351.97 282.1
c-10.0596 3.59082 -20.7197 5.90039 -32 5.90039h-32v112c0 8.83984 7.16016 16 16 16h32c8.83984 0 16 -7.16016 16 -16v-117.9zM16 224c-8.83984 0 -16 7.16016 -16 16v128c0 8.83984 7.16016 16 16 16h32c8.83984 0 16 -7.16016 16 -16v-128
c0 -8.83984 -7.16016 -16 -16 -16h-32zM111.99 224c-8.83984 0 -16 7.16016 -16 16v160c0 8.83984 7.16016 16 16 16h32c8.83984 0 16 -7.16016 16 -16v-160c0 -8.83984 -7.16016 -16 -16 -16h-32z" />
    <glyph glyph-name="ghost" unicode="&#xf6e2;" horiz-adv-x="384" 
d="M186.1 447.91c108.73 3.25977 197.9 -83.9102 197.9 -191.91v-271.97c0 -14.25 -17.2305 -21.3906 -27.3096 -11.3105l-24.9209 18.5303c-6.65918 4.95996 -16 3.99023 -21.5098 -2.20996l-42.9502 -48.3496c-6.25 -6.25 -16.3799 -6.25 -22.6299 0l-40.7197 45.8496
c-6.36035 7.16992 -17.5498 7.16992 -23.9199 0l-40.7197 -45.8496c-6.25 -6.25 -16.3799 -6.25 -22.6299 0l-42.9502 48.3496c-5.50977 6.2002 -14.8506 7.16016 -21.5098 2.20996l-24.9209 -18.5303c-10.0791 -10.0801 -27.3096 -2.9502 -27.3096 11.3105v263.92
c0 105.13 81.0098 196.81 186.1 199.96zM128 224c17.6699 0 32 14.3301 32 32s-14.3301 32 -32 32s-32 -14.3301 -32 -32s14.3301 -32 32 -32zM256 224c17.6699 0 32 14.3301 32 32s-14.3301 32 -32 32s-32 -14.3301 -32 -32s14.3301 -32 32 -32z" />
    <glyph glyph-name="hammer" unicode="&#xf6e3;" horiz-adv-x="576" 
d="M571.31 254.06c6.25 -6.25 6.25 -16.3799 0.0205078 -22.6191l-90.5098 -90.5107c-6.25 -6.25 -16.3799 -6.25 -22.6299 0l-22.6309 22.6299c-6.25 6.25 -6.25 16.3809 0 22.6309l11.3105 11.3096l-28.9004 28.9004
c-21.3096 -5.63086 -44.8994 -0.360352 -61.6094 16.3496l-49.1406 49.1396c-12.0098 12 -18.75 28.2803 -18.75 45.25v18.75l-90.5098 45.25c62.4902 62.4805 163.8 62.4805 226.28 0l45.25 -45.25c16.71 -16.71 21.9795 -40.2998 16.3496 -61.6094l28.9004 -28.9004
l11.3096 11.3105c6.25 6.25 16.3799 6.25 22.6299 0zM284.59 269.26l49.1406 -49.1396c3.53906 -3.54004 7.47949 -6.5 11.4395 -9.41016l-238.13 -255.07c-23.8799 -25.5801 -64.2002 -26.2695 -88.9297 -1.5293c-24.7305 24.7393 -24.04 65.0498 1.5293 88.9297
l255.101 238.17c3.00977 -4.16016 6.14941 -8.25 9.84961 -11.9502z" />
    <glyph glyph-name="hand-holding-magic" unicode="&#xf6e5;" horiz-adv-x="576" 
d="M224 224c-51.1396 0 -96 44.8604 -96 96v32c0 52.9404 43.0596 96 96 96h128c52.9404 0 96 -43.0596 96 -96v-32c0 -0.519531 -0.00976562 -1.04004 -0.00976562 -1.55957c-0.600586 -76.1602 -65.1299 -137.07 -142.181 -141.431l-17.8096 -1.00977l53.9102 53.2002
c24.5801 24.2598 42.0898 56.5 42.0898 90.7998v32c0 17.6396 -14.3604 32 -32 32h-128c-17.6396 0 -32 -14.3604 -32 -32v-32c0 -14.5 14.2803 -32 32 -32c64 0 96 32 96 32c0 -52.9404 -43.0596 -96 -96 -96zM565.28 119.9
c15.0801 -13.6104 13.8896 -36.75 -1.2998 -48.8809l-151.23 -120.989c-11.3496 -9.08008 -25.4502 -14.0303 -39.9805 -14.0303h-356.77c-8.83984 0 -16 7.16016 -16 16v96c0 8.83984 7.16016 16 16 16h55.4404l46.5 37.7305c20.9492 17 47.0898 26.2695 74.0596 26.2695
h160c19.4297 0 34.8203 -17.3203 31.5596 -37.3701c-2.55957 -15.7402 -17.3398 -26.6299 -33.2793 -26.6299h-78.2803c-8.83984 0 -16 -7.16016 -16 -16s7.16016 -16 16 -16h118.33c15.0996 0.00195312 29.0303 5.26855 39.9795 14.0303l92.3408 73.8701
c12.4492 9.95996 30.7998 10.6895 42.6299 0z" />
    <glyph glyph-name="hanukiah" unicode="&#xf6e6;" horiz-adv-x="640" 
d="M232 288h16c4.41992 0 8 -3.58008 8 -8v-120h-32v120c0 4.41992 3.58008 8 8 8zM168 288h16c4.41992 0 8 -3.58008 8 -8v-120h-32v120c0 4.41992 3.58008 8 8 8zM392 288h16c4.41992 0 8 -3.58008 8 -8v-120h-32v120c0 4.41992 3.58008 8 8 8zM456 288h16
c4.41992 0 8 -3.58008 8 -8v-120h-32v120c0 4.41992 3.58008 8 8 8zM544 280v-120h-32v120c0 4.41992 3.58008 8 8 8h16c4.41992 0 8 -3.58008 8 -8zM104 288h16c4.41992 0 8 -3.58008 8 -8v-120h-32v120c0 4.41992 3.58008 8 8 8zM624 288c8.83984 0 16 -7.16016 16 -16
v-112c0 -53.0195 -42.9805 -96 -96 -96h-192v-64h176c8.83984 0 16 -7.16016 16 -16v-32c0 -8.83984 -7.16016 -16 -16 -16h-416c-8.83984 0 -16 7.16016 -16 16v32c0 8.83984 7.16016 16 16 16h176v64h-192c-53.0195 0 -96 42.9805 -96 96v112c0 8.83984 7.16016 16 16 16
h32c8.83984 0 16 -7.16016 16 -16v-112c0 -17.6699 14.3301 -32 32 -32h192v192c0 8.83984 7.16016 16 16 16h32c8.83984 0 16 -7.16016 16 -16v-192h192c17.6699 0 32 14.3301 32 32v112c0 8.83984 7.16016 16 16 16h32zM608 320c-13.25 0 -24 11.9502 -24 26.6699
s24 53.3301 24 53.3301s24 -38.5996 24 -53.3301c0 -14.7295 -10.75 -26.6699 -24 -26.6699zM32 320c-13.25 0 -24 11.9502 -24 26.6699s24 53.3301 24 53.3301s24 -38.5996 24 -53.3301c0 -14.7295 -10.75 -26.6699 -24 -26.6699zM320 368
c-13.25 0 -24 11.9502 -24 26.6699s24 53.3301 24 53.3301s24 -38.5996 24 -53.3301c0 -14.7295 -10.75 -26.6699 -24 -26.6699zM112 320c-13.25 0 -24 11.9502 -24 26.6699s24 53.3301 24 53.3301s24 -38.5996 24 -53.3301c0 -14.7295 -10.75 -26.6699 -24 -26.6699z
M176 320c-13.25 0 -24 11.9502 -24 26.6699s24 53.3301 24 53.3301s24 -38.5996 24 -53.3301c0 -14.7295 -10.75 -26.6699 -24 -26.6699zM240 320c-13.25 0 -24 11.9502 -24 26.6699s24 53.3301 24 53.3301s24 -38.5996 24 -53.3301
c0 -14.7295 -10.75 -26.6699 -24 -26.6699zM400 320c-13.25 0 -24 11.9502 -24 26.6699s24 53.3301 24 53.3301s24 -38.5996 24 -53.3301c0 -14.7295 -10.75 -26.6699 -24 -26.6699zM464 320c-13.25 0 -24 11.9502 -24 26.6699s24 53.3301 24 53.3301
s24 -38.5996 24 -53.3301c0 -14.7295 -10.75 -26.6699 -24 -26.6699zM528 320c-13.25 0 -24 11.9502 -24 26.6699s24 53.3301 24 53.3301s24 -38.5996 24 -53.3301c0 -14.7295 -10.75 -26.6699 -24 -26.6699z" />
    <glyph glyph-name="hat-witch" unicode="&#xf6e7;" horiz-adv-x="576" 
d="M571.21 21.1904c6.4502 -6.44043 6.4502 -17.25 -0.389648 -23.25c-45.6699 -40.0605 -103.62 -61.9404 -164.931 -61.9404h-235.779c-61.3105 0 -119.261 21.8799 -164.92 61.9404c-6.85059 6 -6.84082 16.8096 -0.400391 23.25l22.6504 22.6592
c6.04004 6.04004 15.4893 5.95996 21.9893 0.430664c33.6699 -28.6602 75.9707 -44.2803 120.681 -44.2803h235.779c44.71 0 87 15.6201 120.67 44.2803c6.5 5.5293 15.96 5.59961 21.9902 -0.430664zM224 32h-53.8896c-23.8506 0 -46.3906 5.75 -67.0801 15.8096
l103.93 233.86c11.125 25.0273 29.8447 45.6523 53.4697 59.1504l166.351 102.97c12.5293 7.16016 28.29 5.04004 38.5 -5.16016l69.3496 -72.6396c8.57031 -8.57031 11.5605 -21.25 7.73047 -32.75l-30.3604 -77.2402l-14.04 42.1201
c-4.36035 13.0703 -16.5898 21.8799 -30.3604 21.8799h-39.1992c-14.125 -0.000976562 -26.1172 -9.16406 -30.3604 -21.8701l-6.34961 -19.04c-2.12012 -6.35938 -3.25391 -13.2178 -3.25391 -20.2852c0 -8.93164 1.83301 -17.4385 5.14355 -25.165l79.5996 -185.729
c-20.75 -10.1201 -43.3496 -15.9102 -67.29 -15.9102h-53.8896v64c0 17.6699 -14.3301 32 -32 32h-64c-17.6699 0 -32 -14.3301 -32 -32v-64zM256 32v64h64v-64h-64z" />
    <glyph glyph-name="head-side" unicode="&#xf6e9;" 
d="M509.21 173c9.40039 -21.1602 -6.08984 -45 -29.25 -45h-31.96v-64c0 -35.3496 -28.6504 -64 -64 -64h-64v-64h-256v177.18c-39.2002 35.1504 -64 86.0303 -64 142.82c0 106.04 85.96 192 192 192h74.0898c68.4697 0 131.59 -33.5996 170.04 -88.25
c24.6396 -35.0195 52.1396 -139.63 73.0801 -186.75zM320 224c17.6699 0 32 14.3301 32 32s-14.3301 32 -32 32s-32 -14.3301 -32 -32s14.3301 -32 32 -32z" />
    <glyph glyph-name="head-vr" unicode="&#xf6ea;" 
d="M304 384h112v-160h-107.44c-41.8496 0 -79.9795 30.1104 -84.1494 71.75c-4.79004 47.8896 32.6895 88.25 79.5898 88.25zM512 240c0 -8.83984 -7.16016 -16 -16 -16h-48v160h48c8.83984 0 16 -7.16016 16 -16v-128zM192.57 292.56
c1.30957 -13 5.25 -25.25 10.9199 -36.5596h-187.49c-8.83984 0 -16 7.16016 -16 16v32c0 8.83984 7.16016 16 16 16h27.1602c26.3799 74.5195 97.2803 128 180.84 128h42.0898c39.8799 0 77.7803 -11.6797 110.21 -32h-72.2998
c-31.5898 0 -61.8604 -13.4404 -83.0596 -36.8701c-21.1904 -23.4199 -31.5303 -54.9697 -28.3701 -86.5703zM501.51 192c2.64062 -6.95996 5.2207 -13.4404 7.69043 -19c9.41016 -21.1602 -6.08008 -45 -29.2402 -45h-31.96v-64c0 -35.3496 -28.6504 -64 -64 -64h-64v-64
h-224v177.18c-31.6504 28.3799 -53.6504 67.1006 -61.0498 110.82h192.689c21.1904 -19.6699 49.79 -32 80.9199 -32h192.95z" />
    <glyph glyph-name="helmet-battle" unicode="&#xf6eb;" horiz-adv-x="576" 
d="M32.0098 192c-20.8096 0 -36.0898 17.1602 -31.04 34.8701l63.0303 221.13v-227.94c0 -15.5 -14.3203 -28.0596 -31.9902 -28.0596zM575.03 226.87c5.0498 -17.71 -10.2305 -34.8701 -31.04 -34.8701c-17.6699 0 -31.9902 12.5596 -31.9902 28.0596v227.94zM480 237.18
c0 -82.7598 22.8604 -145.899 31.1396 -180.71c3.43066 -14.4297 -3.58984 -29.3701 -16.3193 -35.2393l-174.82 -85.2305v256l96 32v32h-256v-32l96 -32v-256l-174.81 85.2305c-12.7305 5.86914 -19.75 20.8096 -16.3203 35.2393
c8.26953 34.8105 31.1299 97.9502 31.1299 180.71c0 120.471 192 210.82 192 210.82s192 -90.3496 192 -210.82z" />
    <glyph glyph-name="hiking" unicode="&#xf6ec;" horiz-adv-x="384" 
d="M80.9502 -24.2305l34.5596 138.221l52.7803 -52.7803l-25.2402 -100.97c-3.64941 -14.5303 -16.6895 -24.2305 -31.0195 -24.2305c-2.58008 0 -5.19043 0.290039 -7.7998 0.950195c-17.1406 4.28027 -27.5605 21.6504 -23.2803 38.8096zM95.8398 171.89
c-2.18945 -8.41992 -11.0801 -13.54 -19.8701 -11.4395l-63.5596 15.25c-8.78027 2.10938 -14.1104 10.6396 -11.9199 19.0596l25.2695 98.1299c10.9707 42.1006 55.4404 67.6904 99.3203 57.1699c8.78027 -2.10938 14.1104 -10.6396 11.9199 -19.0596zM368 288
c8.83984 0 16 -7.16016 15.9902 -16v-320.01c0 -8.83984 -7.16016 -16 -16 -16h-16c-8.83984 0 -16 7.16016 -16 16v240h-48c-8.48047 0 -16.6201 3.37988 -22.6201 9.37988l-22.4297 22.4297l-19.8906 -79.5693
c-0.129883 -0.520508 -0.469727 -0.910156 -0.620117 -1.41016l46.8203 -46.8203c12.0898 -12.0898 18.75 -28.1602 18.75 -45.25v-82.75c0 -17.6699 -14.3301 -32 -32 -32s-32 14.3301 -32 32v82.75l-86.6201 86.6201c-5.79297 5.79395 -9.37109 13.7861 -9.37109 22.6191
c0 2.67969 0.330078 5.28223 0.951172 7.77051l26.9199 107.721c6.56055 26.2197 30.0098 44.5195 57.0303 44.5195c15.7002 0 30.4697 -6.11035 41.5596 -17.2197l46.7803 -46.7803h34.75v16c0 8.83984 7.16016 16 16 16h16zM240 352c-26.5098 0 -48 21.4902 -48 48
s21.4902 48 48 48s48 -21.4902 48 -48s-21.4902 -48 -48 -48z" />
    <glyph glyph-name="hockey-mask" unicode="&#xf6ee;" horiz-adv-x="448" 
d="M376.61 393.54c64.0293 -56.04 102.399 -169.98 38.7598 -361.54c-31.9004 -96 -191.37 -96 -191.37 -96s-159.47 0 -191.37 96c-63.6396 191.56 -25.2695 305.5 38.7598 361.54c82.96 72.6104 222.271 72.6104 305.221 0zM288 384c-8.83984 0 -16 -7.16016 -16 -16
s7.16016 -16 16 -16s16 7.16016 16 16s-7.16016 16 -16 16zM160 384c-8.83984 0 -16 -7.16016 -16 -16s7.16016 -16 16 -16s16 7.16016 16 16s-7.16016 16 -16 16zM176 -16c8.83984 0 16 7.16016 16 16s-7.16016 16 -16 16s-16 -7.16016 -16 -16s7.16016 -16 16 -16zM176 48
c8.83984 0 16 7.16016 16 16s-7.16016 16 -16 16s-16 -7.16016 -16 -16s7.16016 -16 16 -16zM176 112c8.83984 0 16 7.16016 16 16s-7.16016 16 -16 16s-16 -7.16016 -16 -16s7.16016 -16 16 -16zM128 176c35.3496 0 64 28.6504 64 64c0 17.6699 -14.3301 32 -32 32h-64
c-17.6699 0 -32 -14.3301 -32 -32c0 -35.3496 28.6504 -64 64 -64zM224 304c8.83984 0 16 7.16016 16 16s-7.16016 16 -16 16s-16 -7.16016 -16 -16s7.16016 -16 16 -16zM272 -16c8.83984 0 16 7.16016 16 16s-7.16016 16 -16 16s-16 -7.16016 -16 -16s7.16016 -16 16 -16z
M272 48c8.83984 0 16 7.16016 16 16s-7.16016 16 -16 16s-16 -7.16016 -16 -16s7.16016 -16 16 -16zM272 112c8.83984 0 16 7.16016 16 16s-7.16016 16 -16 16s-16 -7.16016 -16 -16s7.16016 -16 16 -16zM320 176c35.3496 0 64 28.6504 64 64c0 17.6699 -14.3301 32 -32 32
h-64c-17.6699 0 -32 -14.3301 -32 -32c0 -35.3496 28.6504 -64 64 -64z" />
    <glyph glyph-name="house-damage" unicode="&#xf6f1;" horiz-adv-x="576" 
d="M288 333.04l218.74 -192.94c1.54004 -1.37988 3.55957 -2.04004 5.25977 -3.19922v-184.9c0 -8.83984 -7.16016 -16 -16 -16h-176.19l-39.9199 55.25l104.11 64l-148.05 136.78l60.1602 -119.221l-104.11 -64l37.2305 -72.8096h-149.23c-8.83984 0 -16 7.16016 -16 16
v184.94c1.78027 1.20996 3.84961 1.88965 5.46973 3.34961zM570.69 211.72c6.5791 -5.89941 7.11914 -16.0195 1.21973 -22.5898l-21.4004 -23.8203c-5.91016 -6.56934 -16.0293 -7.10938 -22.5996 -1.20996l-229.32 202.271c-6.0498 5.33008 -15.1201 5.33008 -21.1699 0
l-229.32 -202.28c-6.58008 -5.91016 -16.6992 -5.35938 -22.5996 1.20996l-21.4004 23.8203c-5.90918 6.58008 -5.35938 16.6895 1.20996 22.5996l255.99 226.011c7.60059 6.85938 17.1406 10.2793 26.7002 10.2695s19.1201 -3.4502 26.75 -10.3096l101.25 -89.3809v51.6904
c0 8.83984 7.16016 16 16 16h64c8.83984 0 16 -7.16016 16 -16v-136.45z" />
    <glyph glyph-name="hryvnia" unicode="&#xf6f2;" horiz-adv-x="384" 
d="M368 208h-99.7002l-34.6699 -32h134.37c8.83984 0 16 -7.16016 16 -16v-32c0 -8.83984 -7.16016 -16 -16 -16h-203.7l-29.4902 -27.2197c-4.3291 -4 -6.80957 -9.66992 -6.80957 -15.5801c0 -11.6807 9.50977 -21.2002 21.2002 -21.2002h83.6299
c5.83301 0 11.1992 2.09375 15.3604 5.55957l11.75 9.80078c10.1895 8.48926 25.3193 7.12012 33.8096 -3.07031l20.4902 -24.5898c8.49023 -10.1807 7.10938 -25.3105 -3.07031 -33.7998l-11.7695 -9.81055c-18.6807 -15.5596 -42.2207 -24.0898 -66.54 -24.0898h-78.8203
c-37.1396 0 -73.3799 17.8496 -92.0498 49.9502c-17.8701 30.7197 -17.54 65.4199 -4.12988 94.0498h-41.8604c-8.83984 0 -16 7.16016 -16 16v32c0 8.83984 7.16016 16 16 16h99.7002l34.6699 32h-134.37c-8.83984 0 -16 7.16016 -16 16v32c0 8.83984 7.16016 16 16 16
h203.7l29.4902 27.21c4.3291 4 6.80957 9.66992 6.80957 15.5801c0 11.6797 -9.50977 21.2002 -21.2002 21.2002h-83.6201c-5.62012 0 -11.0693 -1.9707 -15.3896 -5.57031l-11.7305 -9.78027c-10.1895 -8.48926 -25.3193 -7.12012 -33.8096 3.07031l-20.4902 24.5898
c-8.49023 10.1807 -7.10938 25.3105 3.07031 33.7998l11.7695 9.81055c18.6807 15.5596 42.2207 24.0898 66.54 24.0898h78.8203c37.1396 0 73.3799 -17.8398 92.0498 -49.9502c17.8701 -30.7197 17.54 -65.4199 4.12988 -94.0498h41.8604c8.83984 0 16 -7.16016 16 -16v-32
c0 -8.83984 -7.16016 -16 -16 -16z" />
    <glyph glyph-name="key-skeleton" unicode="&#xf6f3;" 
d="M448 448c35.3496 0 64 -28.6504 64 -64v-128c0 -35.3496 -28.6504 -64 -64 -64h-153.6l-80 -80l36.9092 -36.9102c6.25 -6.25 6.25 -16.3799 0 -22.6299l-15.7695 -15.7695c-6.25 -6.25 -16.3799 -6.25 -22.6299 0l-36.9102 36.9092l-30.8701 -30.8691l36.1104 -36.1104
c6.25 -6.25 6.25 -16.3799 0 -22.6299l-43.1602 -43.1602c-6.25 -6.25 -16.3799 -6.25 -22.6299 0l-36.1104 36.1104l-36.25 -36.25c-6.25 -6.25 -16.3799 -6.25 -22.6299 0l-15.7695 15.7695c-6.25 6.25 -6.25 16.3799 0 22.6299l251.31 251.311v153.6
c0 35.3496 28.6504 64 64 64h128zM374.63 265.37c12.4902 12.5 12.4902 32.7598 0 45.25c-12.5 12.5 -32.7598 12.5 -45.2598 0c-12.5 -12.4902 -12.5 -32.75 0 -45.25s32.7598 -12.5 45.2598 0zM438.63 329.37c12.4902 12.5 12.4902 32.7598 0 45.25
c-12.5 12.5 -32.7598 12.5 -45.2598 0c-12.5 -12.4902 -12.5 -32.75 0 -45.25s32.7598 -12.5 45.2598 0z" />
    <glyph glyph-name="knife-kitchen" unicode="&#xf6f5;" horiz-adv-x="576" 
d="M267.52 231.4l129.091 -124.45c6.47949 -6.25 6.47949 -16.3799 0 -22.6299l-61.04 -58.8506c-84.8506 -81.8096 -210.37 -110.38 -324.21 -73.79c-11.71 3.76074 -15.21 18.0801 -6.49023 26.4902zM566.28 404.69c12.96 -12.5 12.96 -32.7607 0 -45.2607
l-118.29 -119.43v-44.5098c0 -8.49023 -3.5 -16.6299 -9.7207 -22.6299l-34.3496 -27.71l-112.1 108.08l192.31 185.399c12.96 12.5 33.9805 12.5 46.9404 0zM444.24 298.34c6.47949 6.25 6.47949 16.3799 0 22.6299c-6.48047 6.25 -16.9902 6.25 -23.4707 0
c-6.47949 -6.25 -6.47949 -16.3799 0 -22.6299c6.48047 -6.25 16.9902 -6.25 23.4707 0zM504.76 356.69c6.48047 6.23926 6.48047 16.3799 0 22.6299c-6.47949 6.25 -16.9902 6.25 -23.4697 0c-6.48047 -6.25 -6.48047 -16.3799 0 -22.6299
c6.47949 -6.25 16.9902 -6.25 23.4697 0z" />
    <glyph glyph-name="leaf-maple" unicode="&#xf6f6;" 
d="M503.58 281.95c11.0498 -6.62988 11.2598 -22.5703 0.379883 -29.5098l-140.79 -89.5908l64.8398 16.5801c12.5801 2.80078 23.7002 -8.62012 20.5801 -21.1201l-13.8096 -25.7197l51.3193 -45.2998c8.66992 -6.94043 8.66992 -20.1299 0 -27.0703l-51.3193 -45.2998
l13.8096 -25.7197c3.12012 -12.5 -8 -23.9102 -20.5801 -21.1201l-160.189 33.04l-15.8906 -37.0898c-6 -14.0107 -25.8594 -14.0107 -31.8701 0l-29.1592 68.0498l66.0996 115.67l-202.38 -202.37c-6.25 -6.25977 -14.4297 -9.37988 -22.6201 -9.37988
s-16.3799 3.12012 -22.6299 9.37012c-12.5 12.5 -12.5 32.75 0 45.25l121.41 121.399l-102.75 44.04c-14.0107 6.01074 -14.0107 25.8701 0 31.8701l37.0898 15.8906l-33.04 160.189c-2.7998 12.5801 8.62012 23.7002 21.1201 20.5801l25.7295 -13.8096l45.3008 51.3301
c6.93945 8.66992 20.1299 8.66992 27.0693 0l45.2998 -51.3301l25.7207 13.8193c12.5 3.12012 23.9199 -8 21.1201 -20.5801l-16.5801 -64.8398l89.5996 140.79c6.91992 10.8701 22.8604 10.6602 29.4902 -0.389648l22.3301 -37.2305l88.7793 9.86035
c11.04 1.23047 20.3701 -8.09961 19.1406 -19.1396l-9.86035 -88.7803z" />
    <glyph glyph-name="leaf-oak" unicode="&#xf6f7;" 
d="M488.4 292.84c26.9795 -18.6494 31.6895 -54.04 9.62988 -77.8096c-6.26074 -6.76074 -14.7002 -11.71 -22.6602 -16.6504c-12.6201 -7.82031 -25.6904 -14.9395 -39.9297 -23.1299c5.51953 -6.71973 9.75 -11.6504 13.7295 -16.7695
c22.2305 -28.6006 15.9697 -59.6309 -15.4004 -77.6201c-22.75 -13.04 -47.0693 -11.6406 -71.7598 -8.4707c-12.8496 1.66016 -25.7598 2.69043 -42.3096 4.37988c4.25977 -6.14941 6.24023 -8.5791 7.78027 -11.2695c14.9395 -26.0996 4.2998 -55.3203 -24.6406 -63.1699
c-11.8203 -3.20996 -25.6396 -3.57031 -37.5801 -0.860352c-17.3096 3.94043 -33.46 12.8701 -50.6602 17.6201c-9.40918 2.60059 -21.04 3.91016 -29.8096 0.719727c-3.63965 -1.31934 -7.25 -2.33984 -10.8701 -3.42969l64.4102 112.71l-183.71 -183.71
c-6.25 -6.25977 -14.4297 -9.37988 -22.6201 -9.37988s-16.3799 3.12012 -22.6299 9.37012c-12.5 12.5 -12.5 32.75 0 45.25l68.8701 68.8701c-5.49023 20.3701 -1.62988 40.6094 5.91016 61.3193c3.18945 8.77051 1.87988 20.4004 -0.720703 29.8105
c-4.73926 17.2002 -13.6797 33.3496 -17.6094 50.6602c-2.70996 11.9395 -2.33984 25.7598 0.859375 37.5801c7.85059 28.9395 37.0703 39.5801 63.1699 24.6396c2.69043 -1.54004 5.13086 -3.50977 11.2705 -7.78027c-1.69043 16.5498 -2.73047 29.4707 -4.37988 42.3105
c-3.16992 24.6895 -4.58008 49.0195 8.46973 71.7598c17.9902 31.3604 49.0098 37.6299 77.6201 15.4004c5.12012 -3.98047 10.0498 -8.2207 16.7695 -13.7305c8.19043 14.2305 15.3105 27.2998 23.1309 39.9297c4.93945 7.95996 9.88965 16.3906 16.6494 22.6602
c23.7705 22.0498 59.1602 17.3301 77.8105 -9.64941c2.73926 -3.9707 5.44922 -8.08008 7.35938 -12.4707c3.19043 -7.33008 11.7998 -10.3496 19.5605 -8.05957c33.0693 9.75977 57.0098 2.91016 71.5 -12.4297l-0.169922 -0.170898
c15.3496 -14.5 22.1895 -38.4297 12.4297 -71.5098c-2.29004 -7.75 0.729492 -16.3701 8.05957 -19.5596c4.40039 -1.91016 8.5 -4.62012 12.4707 -7.36035z" />
    <glyph glyph-name="mace" unicode="&#xf6f8;" 
d="M170.65 151.91c11.9688 -18.0508 27.2158 -33.2949 45.2695 -45.2598l-165.97 -165.971c-6.25 -6.25 -16.3799 -6.25 -22.6299 0l-22.6299 22.6299c-6.25 6.25 -6.25 16.3809 0 22.6309zM500.98 253.03c14.5898 -4.62012 14.7197 -17.1602 0.199219 -22.0898
l-74.4395 -25.2607c-11.7598 -42.0801 -44.2207 -75.0693 -85.9502 -87.6699l-23.7705 -74.9902c-4.61914 -14.5898 -17.1592 -14.7197 -22.0791 -0.219727l-25.2607 74.4404c-42.0801 11.7695 -75.0693 44.2295 -87.6699 85.96l-74.9902 23.7695
c-14.5898 4.62012 -14.7197 17.1602 -0.219727 22.0801l74.4404 25.2598c11.7695 42.0801 44.2295 75.0703 85.96 87.6709l23.7695 75c4.62012 14.5898 17.1602 14.7197 22.0801 0.219727l25.2705 -74.4502c42.0801 -11.7598 75.0693 -44.2197 87.6699 -85.9502zM304 208
c17.6699 0 32 14.3301 32 32s-14.3301 32 -32 32s-32 -14.3301 -32 -32s14.3301 -32 32 -32z" />
    <glyph glyph-name="mountain" unicode="&#xf6fc;" horiz-adv-x="640" 
d="M634.92 -14.7002c3.2041 -4.98145 5.06348 -10.9756 5.06348 -17.334c0 -5.53906 -1.41113 -10.751 -3.89355 -15.2959c-5.60938 -10.2803 -16.3799 -16.6699 -28.0898 -16.6699h-576c-12.1191 0 -22.6582 6.7168 -28.0898 16.6602
c-2.48242 4.5459 -3.89355 9.82715 -3.89355 15.3672c0 6.36035 1.85938 12.2891 5.06348 17.2725l288 448c5.88965 9.16016 16.0303 14.7002 26.9199 14.7002s21.0303 -5.54004 26.9199 -14.7002zM320 356.82l-102.06 -158.761l38.0596 -38.0596l64 64h85.3896z" />
    <glyph glyph-name="mountains" unicode="&#xf6fd;" horiz-adv-x="640" 
d="M635.73 41.0898c11.7295 -18 -2.09082 -41.0898 -24.5908 -41.0898h-580.22c-24.1104 0 -38.9102 25.1904 -26.3398 44.8203l207.9 324.66c12.3994 19.3594 42.6396 19.3594 55.0391 0l70.8105 -110.551l59.9004 -93.54
c2.37988 -3.71973 7.3291 -4.7998 11.0498 -2.41992l13.46 8.62012c3.71973 2.37988 4.7998 7.33008 2.41992 11.0498l-67.6797 105.681l32.8398 50.3701c11.5693 17.75 39.7998 17.75 51.3701 0z" />
    <glyph glyph-name="network-wired" unicode="&#xf6ff;" horiz-adv-x="640" 
d="M640 184c0 -8.83984 -7.16016 -16 -16 -16h-104v-40h56c17.6699 0 32 -14.3301 32 -32v-128c0 -17.6699 -14.3301 -32 -32 -32h-160c-17.6699 0 -32 14.3301 -32 32v128c0 17.6699 14.3301 32 32 32h56v40h-304v-40h56c17.6699 0 32 -14.3301 32 -32v-128
c0 -17.6699 -14.3301 -32 -32 -32h-160c-17.6699 0 -32 14.3301 -32 32v128c0 17.6699 14.3301 32 32 32h56v40h-104c-8.83984 0 -16 7.16016 -16 16v16c0 8.83984 7.16016 16 16 16h280v40h-72c-17.6699 0 -32 14.3301 -32 32v128c0 17.6699 14.3301 32 32 32h192
c17.6699 0 32 -14.3301 32 -32v-128c0 -17.6699 -14.3301 -32 -32 -32h-72v-40h280c8.83984 0 16 -7.16016 16 -16v-16zM256 320h128v64h-128v-64zM192 0v64h-96v-64h96zM544 0v64h-96v-64h96z" />
    <glyph glyph-name="otter" unicode="&#xf700;" horiz-adv-x="640" 
d="M608 416c17.6699 0 32 -14.3301 32 -32v-32c0 -53.0195 -42.9805 -96 -96 -96h-22.8604l-92.4697 -49.79l55.1104 -110.21h28.2197c17.6699 0 32 -14.3301 32 -32v-16c0 -8.83984 -7.16016 -16 -16 -16h-80l-74.5098 144.5l-149.49 -80.5h64
c17.6699 0 32 -14.3301 32 -32v-16c0 -8.83984 -7.16016 -16 -16 -16h-224c-8.83008 0 -16 -7.16992 -16 -16s7.16992 -16 16 -16h112c17.6699 0 32 -14.3301 32 -32s-14.3301 -32 -32 -32h-108.47c-39.3799 0 -75.5205 26.9004 -82.2803 65.7002
c-4.91016 28.1201 5 54.2197 23.1904 71.7998c23.5596 22.75 39.5596 52.1396 39.5596 84.8896v1.61035c0 106.04 85.96 192 192 192h56l153.25 87.5703c9.66992 5.51953 20.6104 8.42969 31.75 8.42969h20.4902c0.00390625 0 0.0166016 0.00878906 0.0214844 0.00878906
c17.6602 0 33.6582 -7.17188 45.2383 -18.7588l13.25 -13.25h32zM512 400c-8.83984 0 -16 -7.16016 -16 -16s7.16016 -16 16 -16s16 7.16016 16 16s-7.16016 16 -16 16zM544 304c20.8301 0 38.4297 13.4199 45.0498 32h-77.0498l-118.57 -59.29l13.7705 -27.5498
l101.84 54.8398h34.96z" />
    <glyph glyph-name="paw-alt" unicode="&#xf701;" horiz-adv-x="448" 
d="M144 320c-26.5098 0 -48 21.4902 -48 48s21.4902 48 48 48s48 -21.4902 48 -48s-21.4902 -48 -48 -48zM96 256c0 -26.5098 -21.4902 -48 -48 -48s-48 21.4902 -48 48s21.4902 48 48 48s48 -21.4902 48 -48zM304 320c-26.5098 0 -48 21.4902 -48 48s21.4902 48 48 48
s48 -21.4902 48 -48s-21.4902 -48 -48 -48zM400 304c26.5098 0 48 -21.4902 48 -48s-21.4902 -48 -48 -48s-48 21.4902 -48 48s21.4902 48 48 48zM367.31 147.22c29.0605 -16.3994 48.6904 -47.3994 48.6904 -83.1699c0 -53.0098 -42.9805 -95.9795 -96 -95.9795
c-51.71 -1.76074 -72.1904 31.9893 -96 31.9893s-44.29 -33.75 -96 -31.9893c-53.0195 0 -96 42.9697 -96 95.9795c0 35.7705 19.6299 66.7705 48.6797 83.1699c27.0508 15.2705 46.8799 60.8701 67.1699 97.8301c15.7402 28.6406 45.9404 42.9502 76.1504 42.9502
s60.4102 -14.3096 76.1396 -42.9502c20.0303 -36.4199 40.8799 -82.9902 67.1699 -97.8301z" />
    <glyph glyph-name="paw-claws" unicode="&#xf702;" 
d="M193.44 225.39c-30.9307 -8.14941 -65.6201 20.4502 -77.46 63.8701c-8.44043 30.9307 -3.01074 61.0498 12.0098 78.75l64.0098 79.9902v-74.96c15.9502 -11.25 29.4902 -30.3701 36.0195 -54.29c11.8408 -43.4199 -3.63965 -85.2197 -34.5791 -93.3604zM318.56 225.39
c-30.9395 8.14062 -46.4199 49.9404 -34.5791 93.3604c6.5293 23.9199 20.0693 43.0303 36.0195 54.29v74.96l64.0098 -79.9902c15.0205 -17.7002 20.4502 -47.8096 12.0098 -78.75c-11.8398 -43.4199 -46.5195 -72.0098 -77.46 -63.8701zM256 192
c79.4102 0 192 -122.76 192 -200.25c0 -34.9004 -26.8096 -55.75 -71.7402 -55.75c-48.4102 0 -80.75 25.0801 -120.26 25.0801c-39.1699 0 -71.4199 -25.0801 -120.26 -25.0801c-44.9307 0 -71.7402 20.8496 -71.7402 55.75c0 77.4902 112.59 200.25 192 200.25z
M108.72 204.61c10.4004 -34.6504 -4.76953 -68.3799 -33.8799 -75.3506c-29.1201 -6.95996 -61.1602 15.4805 -71.5596 50.1299c-2.19043 7.30078 -3.25 14.5508 -3.28027 21.5205c0 21.1592 6.89453 40.8291 18.4902 56.7197l45.5098 62.3701v-66.9297
c19.8301 -6.55078 37.5098 -24.4307 44.7197 -48.46zM493.51 257.63c11.5967 -15.8955 18.4941 -35.5576 18.5 -56.7197c-0.0292969 -6.98047 -1.08984 -14.2305 -3.2793 -21.5205c-10.4102 -34.6494 -42.4404 -57.0898 -71.5605 -50.1299s-44.29 40.6904 -33.8896 75.3398
c7.20996 24.0303 24.8896 41.9102 44.7197 48.46v66.9404z" />
    <glyph glyph-name="pegasus" unicode="&#xf703;" horiz-adv-x="576" 
d="M575.92 371.4l0.0605469 -77.71c0 -0.0107422 0.0185547 -0.00683594 0.0185547 -0.0166016c0 -13.4707 -8.34277 -25.0088 -20.1387 -29.7236l-32.5508 -13.0205c-15.4395 -6.17969 -33.04 0.5 -40.4893 15.3701l-18.9004 37.7002l-16 7.11035v-102.471
c0.00976562 -0.219727 0.0800781 -0.419922 0.0800781 -0.639648c0 -30.4697 -12.2598 -58.0303 -32 -78.2197v-177.78c0 -8.83984 -7.16016 -16 -16 -16h-64c-8.83984 0 -16 7.16016 -16 16v150.4l-133.97 22.3301l-23.8398 -63.5908l26.3096 -105.26
c2.53027 -10.0996 -5.11035 -19.8799 -15.5195 -19.8799h-65.9609c-7.48633 0 -13.7783 5.16602 -15.5098 12.1201l-24.8496 99.4102c-1.24707 4.98047 -1.8916 10.1924 -1.8916 15.5576c0 7.8916 1.43262 15.4502 4.05176 22.4316l25.7197 68.6006
c-18.7002 17.5195 -30.54 42.2402 -30.54 69.8799c0 2.62988 0.570312 5.09961 0.780273 7.67969c-9.91016 -7.29004 -16.7803 -18.46 -16.7803 -31.6797v-56c0 -8.83984 -7.16016 -16 -16 -16h-16c-8.83984 0 -16 7.16016 -16 16v56c0 48.5303 39.4697 88 88 88v-1.12012
c11.3496 12.9902 26.25 22.5 42.9697 27.9697c13.7002 -65.3398 74.1406 -122.859 157.03 -122.859v3.16992c-76.9902 14.6494 -128 80.7002 -128 147.74c0 24.2998 5.49023 47.2793 15.2197 67.8691c3.43066 7.26074 13.8203 6.85059 17.04 -0.5
c23.46 -53.4893 63.7402 -90.2695 127.66 -90.2695c0 70.6904 57.3105 128 128 128h119.98c5.05957 0 8.94922 -4.67969 7.92969 -9.63965c-2.67969 -13.1699 -11.1201 -23.8203 -22.1797 -30.6602c5.10938 -5.37988 9.90918 -10.4697 13.6895 -14.5
c5.56055 -5.93066 8.57031 -13.6699 8.58008 -21.7998zM511.92 352c8.83984 0 16 7.16016 16 16s-7.16016 16 -16 16s-16 -7.16016 -16 -16s7.16016 -16 16 -16z" />
    <glyph glyph-name="pumpkin" unicode="&#xf707;" horiz-adv-x="576" 
d="M352 334.79c-17.7695 11.0898 -38.8398 17.21 -64 17.21c-16.4297 0 -30.7305 -3.2002 -44 -7.92969l37.5498 93.8594c3.46973 8.69043 13.6406 12.5605 22.0098 8.37012l39.6006 -19.7998c5.41992 -2.70996 8.83984 -8.25 8.83984 -14.3096v-77.4004zM495.3 294.87
c107.601 -92.0098 107.601 -241.73 0.00976562 -333.74c-38.6299 -33.0303 -100.819 -33.3398 -140.119 -1.25c-17.8408 -15.3896 -39.9102 -23.8799 -67.1904 -23.8799s-49.3496 8.49023 -67.1797 23.8799c-39.3008 -32.0898 -101.49 -31.7803 -140.12 1.25
c-107.601 92.0205 -107.601 241.73 0 333.74c31.6094 27.0303 78.7998 31.6895 116.51 15.0498c-3.08008 -3.96973 -6.51953 -7.37988 -9.20996 -11.9199c-8.33008 -14.2695 -14.5 -31.7695 -19.1104 -51.6104c3.69043 8.81055 7.95996 16.8604 12.8604 24.1104
c22.6699 33 58.0801 49.5 106.25 49.5s83.5801 -16.5 106.25 -49.5c4.90039 -7.25 9.16992 -15.3096 12.8604 -24.1201c-4.61035 19.8398 -10.79 37.3506 -19.1104 51.6201c-2.69043 4.54004 -6.13965 7.9502 -9.20996 11.9199
c37.71 16.6396 84.9004 11.9805 116.51 -15.0498z" />
    <glyph glyph-name="ram" unicode="&#xf70a;" horiz-adv-x="640" 
d="M622.25 342.04c10.5283 -5.17969 17.752 -15.9951 17.7598 -28.5098c0 -11.1406 -10.3896 -31.3301 -17.9795 -44.5898c-4.61035 -8.04004 -13.1104 -12.9404 -22.3701 -12.9404h-87.6602v-61.75c-0.00195312 -22.2207 -11.2871 -41.7734 -28.5 -53.25l-35.4805 -23.6699
v-165.33c0 -8.83984 -7.15918 -16 -16 -16h-64c-8.83984 0 -16 7.16016 -16 16v124.49c-0.169922 0.149414 -0.349609 0.269531 -0.509766 0.419922c-8.58984 -7.9502 -19.9697 -12.9102 -32.46 -12.9102c-12.7998 0 -24 4.80957 -32.6396 12.8096
c-8.64062 -8 -20.1602 -12.8096 -32.6406 -12.8096c-12.4697 0 -24 4.80957 -32.6396 12.8096c-3.67969 -3.5293 -8.16992 -6.15918 -12.8994 -8.30957l-14.7607 -39.3604l18.3105 -73.2598c2.5293 -10.0996 -5.11035 -19.8799 -15.5205 -19.8799h-65.96
c-7.48828 0.00195312 -13.7812 5.16602 -15.5195 12.1201l-16.8506 67.4102c-1.24707 4.98242 -1.8916 10.1953 -1.8916 15.5615c0 7.89355 1.43262 15.4551 4.05176 22.4385l6.14062 16.3799c-13.8301 5.50977 -24.3906 16.7002 -28.4707 30.5801
c-16.6396 -3.2002 -34.2295 2.87988 -45.75 16.9697c-11.21 14.0801 -13.46 32.6201 -7.0498 48.3096c-14.7197 8 -24.9502 23.6904 -24.9502 41.9209c0 17.9199 9.91992 33.9199 24.6406 41.9199c-6.41016 15.6699 -4.49023 34.2295 7.0293 48.3096
c11.21 14.0801 28.8008 20.1602 45.4404 17.2803c4.80957 16.3301 18.25 29.4395 35.8398 33.2803c15.3604 3.51953 30.4004 -0.950195 41.5898 -10.2305c8.64062 8.30957 20.4902 13.75 33.6104 13.75c12.4795 0 24 -4.7998 32.6396 -12.7998
c8.31055 8 19.8398 12.7998 32.3105 12.7998c7.04004 0 13.4297 -1.69043 19.3301 -4.32031c2.2998 -50.9697 44.0195 -91.6797 95.5596 -91.6797c5.49023 0 10.79 0.740234 16.0195 1.62012c-45.3193 7.66016 -80.0195 46.9199 -80.0195 94.3799
c0 52.9404 43.0596 96 96 96c28.2598 0 53.4502 -12.5 71.0303 -32h72.9697c17.6699 0 32 -14.3301 32 -32v-19.2197zM352 352c0 -26.4697 21.5303 -48 48 -48s48 21.5303 48 48s-21.5303 48 -48 48s-48 -21.5303 -48 -48zM512 336c8.83984 0 16 7.16016 16 16
s-7.16016 16 -16 16s-16 -7.16016 -16 -16s7.16016 -16 16 -16z" />
    <glyph glyph-name="ring" unicode="&#xf70b;" 
d="M256 384c145.94 0 256 -61.9102 256 -144v-98.1299c0 -78.3506 -114.62 -141.87 -256 -141.87s-256 63.5195 -256 141.87v98.1299c0 82.0898 110.06 144 256 144zM256 320c-106.04 0 -192 -35.8203 -192 -80c0 -9.25977 3.96973 -18.1201 10.9102 -26.3896
c44.9395 26.1797 108.859 42.3896 181.09 42.3896s136.15 -16.21 181.09 -42.3896c6.94043 8.26953 10.9102 17.1299 10.9102 26.3896c0 44.1797 -85.96 80 -192 80zM120.43 183.36c34.7305 -14.4307 82.6406 -23.3604 135.57 -23.3604s100.84 8.92969 135.57 23.3604
c-34.6104 14.71 -81.21 24.6396 -135.57 24.6396s-100.96 -9.92969 -135.57 -24.6396z" />
    <glyph glyph-name="sheep" unicode="&#xf711;" horiz-adv-x="640" 
d="M622.25 342.04c10.5283 -5.17969 17.752 -15.9951 17.7598 -28.5098c0 -11.1406 -10.3896 -31.3301 -17.9795 -44.5898c-4.61035 -8.04004 -13.1104 -12.9404 -22.3701 -12.9404h-87.6602v-61.75c-0.00195312 -22.2207 -11.2871 -41.7734 -28.5 -53.25l-35.5 -23.6699
v-165.33c0 -8.83984 -7.16016 -16 -16 -16h-64c-8.83984 0 -16 7.16016 -16 16v124.6c-0.169922 0.160156 -0.400391 0.209961 -0.570312 0.370117c-8.51953 -7.98926 -19.8701 -12.9697 -32.3896 -12.9697c-12.7998 0 -24 4.80957 -32.6396 12.8096
c-8.64062 -8 -20.1602 -12.8096 -32.6406 -12.8096c-12.4697 0 -24 4.80957 -32.6396 12.8096c-3.67969 -3.5293 -8.16992 -6.15918 -12.9004 -8.30957l-14.7598 -39.3604l18.3096 -73.2598c2.53027 -10.0996 -5.10938 -19.8799 -15.5195 -19.8799h-65.96
c-7.48926 0.00195312 -13.7812 5.16602 -15.5205 12.1201l-16.8496 67.4102c-1.24707 4.98242 -1.8916 10.1953 -1.8916 15.5615c0 7.89355 1.43262 15.4551 4.05176 22.4385l6.13965 16.3799c-13.8301 5.50977 -24.3896 16.6602 -28.4697 30.2695
c-16.6396 -2.88965 -34.2305 3.19043 -45.75 17.2803c-11.21 14.0801 -13.46 32.6201 -7.0498 48.3096c-14.7197 8 -24.9502 23.6904 -24.9502 41.9209c0 17.9199 9.91992 33.5898 24.6504 41.9199c-6.41016 15.6699 -4.49023 34.2295 7.0293 48.3096
c11.21 14.0801 28.8008 20.1602 45.4404 17.2803c4.80957 16.3301 18.25 29.4395 35.8398 33.2803c15.3604 3.51953 30.4004 -0.950195 41.5898 -10.2305c8.64062 8.30957 20.4902 13.75 33.6104 13.75c12.4795 0 24 -4.7998 32.6396 -12.7998
c8.31055 8 19.8398 12.7998 32.3105 12.7998c12.8096 0 24 -4.7998 32.6396 -12.7998c8.63965 8 20.1699 12.7998 32.6396 12.7998c12.8301 0 24.3906 -5.08008 32.9902 -13.2402c17.5498 16.2803 47.0898 16.3398 64.6201 0.419922v76.8203c0 17.6699 14.3301 32 32 32
s32 -14.3301 32 -32h64c17.6699 0 32 -14.3301 32 -32v-19.2197zM512 336c8.83984 0 16 7.16016 16 16s-7.16016 16 -16 16s-16 -7.16016 -16 -16s7.16016 -16 16 -16z" />
    <glyph glyph-name="shield-cross" unicode="&#xf712;" horiz-adv-x="448" 
d="M420.43 364.31c16.6904 -7.44922 27.5703 -24.9297 27.5703 -44.3096c0 -221.28 -126.87 -344.64 -206.77 -380.31c-11.0303 -4.9209 -23.4307 -4.9209 -34.4609 0c-99.9092 44.5996 -206.77 181.819 -206.77 380.31c0 19.3799 10.8799 36.8604 27.5703 44.3096
l179.199 80c11.0303 4.9209 23.4307 4.9209 34.4609 0zM374.09 224c4.25 19.9297 7.17969 41.2803 8.65039 64h-126.74v79.6299l-32 14.29l-32 -14.29v-79.6299h-126.1c1.5293 -22.4199 4.50977 -43.75 8.89941 -64h117.2v-200.76
c10.5703 -8.15039 21.25 -15.2998 31.9297 -20.8105c9.81055 5.18066 20.7305 12.3799 32.0703 21.3008v200.27h118.09z" />
    <glyph glyph-name="shovel" unicode="&#xf713;" 
d="M500.3 351.62c15.6006 -15.6006 15.6006 -40.9697 0 -56.5703l-32.6699 -32.6699c-23.6602 -23.6602 -57.3799 -33.8604 -90.1895 -27.2998c-8.7002 1.74023 -16.8701 4.75 -24.5703 8.54004l-110.26 -110.26l45.2598 -45.2607c12.5 -12.4893 12.5 -32.75 0 -45.25
l-67.8799 -67.8799c-49.9902 -49.9893 -181.021 -45.2598 -203.65 -22.6299s-27.3594 153.66 22.6299 203.65l67.8799 67.8799c12.4902 12.5 32.75 12.5 45.25 0l45.2607 -45.2598l110.26 110.25c-3.78027 7.68945 -6.79004 15.8398 -8.53027 24.5293
c-1.30957 6.56055 -1.9502 13.1602 -1.9502 19.6904c0 26.2402 10.3105 51.6104 29.25 70.5498l32.6699 32.6699c15.5908 15.5898 40.9707 15.5898 56.5605 0zM422.38 307.63l15.7002 15.7002l-50.75 50.75l-15.7002 -15.7002
c-8.49023 -8.46973 -12.1299 -20.5498 -9.7998 -32.3799c2.86035 -14.2598 13.9004 -25.3096 28.1299 -28.1699c2.29199 -0.459961 4.63965 -0.707031 7.06543 -0.707031c9.89648 0 18.8623 4.0166 25.3545 10.5068z" />
    <glyph glyph-name="slash" unicode="&#xf715;" horiz-adv-x="640" 
d="M594.53 -60.6299l-588.351 454.729c-6.96973 5.41992 -8.22949 15.4707 -2.80957 22.4502l19.6396 25.2705c5.41992 6.97949 15.4805 8.23926 22.46 2.80957l588.351 -454.729c6.96973 -5.41992 8.22949 -15.4707 2.80957 -22.4502l-19.6396 -25.2705
c-5.41992 -6.97949 -15.4805 -8.22949 -22.46 -2.80957z" />
    <glyph glyph-name="snake" unicode="&#xf716;" horiz-adv-x="640" 
d="M617.4 267.91c13.4297 -4.12988 22.5996 -16.54 22.5996 -30.5898v-60.6104c0 -14.1699 -9.33008 -26.6602 -22.9199 -30.6797l-86.9199 -25.7207c-33.5801 -9.93945 -66.8604 9.07031 -77.96 39.6904h-4.2002c-17.6699 0 -32 -14.3301 -32 -32v-64
c0 -74.7998 -64.4902 -134.82 -140.79 -127.38c-66.5 6.49023 -115.21 66.2695 -115.21 133.08v250.3c0 17.6396 -14.3604 32 -32 32s-32 -14.3604 -32 -32v-191.53c0 -63.9717 -11.7939 -125.492 -33.0195 -182.09c-5.19043 -13.8398 -24.7705 -13.8398 -29.9609 0
c-21.8398 58.2305 -33.0195 119.91 -33.0195 182.09v191.53c0 74.7998 64.4902 134.82 140.79 127.37c66.5 -6.48047 115.21 -66.2598 115.21 -133.07v-250.3c0 -17.6396 14.3604 -32 32 -32s32 14.3604 32 32v64c0 70.6904 57.3096 128 128 128h4.55957
c11.54 30.2803 44.8604 48.8096 78.25 38.54zM528 160c8.83984 0 16 7.16016 16 16s-7.16016 16 -16 16s-16 -7.16016 -16 -16s7.16016 -16 16 -16zM528 224c8.83984 0 16 7.16016 16 16s-7.16016 16 -16 16s-16 -7.16016 -16 -16s7.16016 -16 16 -16z" />
    <glyph glyph-name="spider" unicode="&#xf717;" horiz-adv-x="576" 
d="M151.17 280.65l-27.1504 54.2998c-2.14551 4.29883 -3.3623 9.18359 -3.3623 14.3115c0 3.53516 0.573242 6.9375 1.63281 10.1182l25.8896 77.6797c2.79004 8.39062 11.8604 12.9209 20.2402 10.1201l15.1699 -5.05957
c8.39062 -2.7998 12.9102 -11.8604 10.1201 -20.2402l-23.7998 -71.3896l20.29 -40.5801c-1.41016 -4.20996 -2.49023 -8.20996 -3.20996 -11.79l-5.2207 -26.1201h-4.66992zM573.31 98.6201c4.90039 -7.35059 2.9209 -17.2803 -4.43945 -22.1797l-13.3105 -8.88086
c-7.34961 -4.89941 -17.29 -2.90918 -22.1895 4.44043l-48 72h-47.0605l60.8301 -97.3301c3.16992 -5.08008 4.86035 -10.96 4.86035 -16.96v-77.71c0 -8.83984 -7.16016 -16 -16 -16h-16c-8.83984 0 -16 7.16016 -16 16v73.1104l-74.0801 118.529
c1 -14.0498 2.08008 -28.1094 2.08008 -42.21c0 -53.0693 -40.7598 -101.43 -96 -101.43s-96 48.3604 -96 101.43c0 14.1006 1.07031 28.1602 2.08008 42.21l-74.0801 -118.529v-73.1104c0 -8.83984 -7.16016 -16 -16 -16h-16c-8.83984 0 -16 7.16016 -16 16v77.7002
c0 0.00292969 0.0205078 0.0400391 0.0205078 0.0439453c0 6.20898 1.77246 12.0078 4.83984 16.916l60.8301 97.3301h-47.0605l-48 -72c-4.89941 -7.35059 -14.8398 -9.33984 -22.1895 -4.44043l-13.3105 8.87988c-7.36035 4.90039 -9.33984 14.8398 -4.43945 22.1904
l52.7393 79.1299c5.74121 8.60547 15.5186 14.248 26.6299 14.25h77.9404l-68.9902 24.3496c-6.81738 2.27441 -12.5947 6.74023 -16.5098 12.6104l-53.5996 80.4102c-4.90039 7.36035 -2.91016 17.29 4.43945 22.1895l13.3105 8.88086
c7.35938 4.89941 17.29 2.90918 22.1895 -4.44043l50.5703 -75.8301l60.4902 -20.1699h36.0996l10.3701 51.8496c2.18945 10.9707 17.3701 60.1504 69.6299 60.1504s67.4404 -49.1797 69.6299 -60.1504l10.3701 -51.8496h36.0996l60.5 20.1699l50.5605 75.8301
c4.89941 7.34961 14.8398 9.33984 22.1895 4.44043l13.3105 -8.88086c7.34961 -4.89941 9.33984 -14.8398 4.43945 -22.1895l-53.5996 -80.4102c-3.91504 -5.87012 -9.69238 -10.3359 -16.5098 -12.6104l-68.9902 -24.3594h77.9404
c11.1084 -0.00292969 20.8828 -5.64453 26.6191 -14.25zM406.09 350.49l-23.7998 71.3896c-2.79004 8.37988 1.74023 17.4404 10.1201 20.2402l15.1699 5.05957c8.37988 2.80078 17.4502 -1.73926 20.2402 -10.1201l25.8896 -77.6797
c1.06152 -3.18164 1.62598 -6.62109 1.62598 -10.1582c0 -5.12695 -1.20801 -9.97461 -3.35547 -14.2715l-27.1504 -54.2998l-25.9297 -8.65039h-4.66992l-5.2207 26.1201c-0.719727 3.58008 -1.7998 7.58008 -3.20996 11.79z" />
    <glyph glyph-name="spider-black-widow" unicode="&#xf718;" horiz-adv-x="576" 
d="M382.29 421.87c-2.79004 8.37988 1.72949 17.4395 10.1201 20.2402l15.1699 5.05957c8.37988 2.7998 17.4502 -1.72949 20.2402 -10.1201l25.8896 -77.6797c1.05957 -3.18164 1.63281 -6.58301 1.63281 -10.1182c0 -5.12793 -1.2168 -10.0127 -3.3623 -14.3115
l-27.1504 -54.3008l-25.9297 -8.63965h-4.66992l-5.2207 26.1201c-0.709961 3.58008 -1.7998 7.58008 -3.20996 11.79l20.29 40.5801zM151.17 280.65l-27.1504 54.2998c-2.14551 4.29883 -3.3623 9.18359 -3.3623 14.3115c0 3.53516 0.573242 6.9375 1.63281 10.1182
l25.8896 77.6797c2.79004 8.39062 11.8604 12.9209 20.2402 10.1201l15.1699 -5.05957c8.39062 -2.7998 12.9102 -11.8604 10.1201 -20.2402l-23.7998 -71.3896l20.29 -40.5801c-1.41016 -4.20996 -2.49023 -8.20996 -3.20996 -11.79l-5.2207 -26.1201h-4.66992z
M568.87 76.4404l-13.3105 -8.88086c-7.34961 -4.89941 -17.29 -2.90918 -22.1895 4.44043l-48 72h-47.0605l60.8301 -97.3301c3.06738 -4.9082 4.83984 -10.707 4.83984 -16.916c0 -0.00390625 0.0205078 -0.0400391 0.0205078 -0.0439453v-77.71
c0 -8.83984 -7.16016 -16 -16 -16h-16c-8.83984 0 -16 7.16016 -16 16v73.1104l-74.0801 118.529c1.00977 -14.0498 2.08008 -28.1094 2.08008 -42.21c0 -53.0693 -40.7598 -101.43 -96 -101.43s-96 48.3604 -96 101.43c0 14.1006 1.08008 28.1602 2.08008 42.21
l-74.0801 -118.529v-73.1104c0 -8.83984 -7.16016 -16 -16 -16h-16c-8.83984 0 -16 7.16016 -16 16v77.71c0 6 1.69043 11.8799 4.86035 16.96l60.8301 97.3301h-47.0605l-48 -72c-4.89941 -7.34961 -14.8398 -9.33984 -22.1895 -4.44043l-13.3105 8.88086
c-7.34961 4.89941 -9.33984 14.8398 -4.43945 22.1895l52.75 79.1201c5.73926 8.60742 15.5176 14.25 26.6299 14.25h77.9297l-68.9902 24.3604c-6.81738 2.27441 -12.5947 6.74023 -16.5098 12.6094l-53.5996 80.4102c-4.90039 7.35059 -2.91016 17.29 4.43945 22.1904
l13.3105 8.87988c7.34961 4.89941 17.29 2.91016 22.1895 -4.44043l50.5605 -75.8301l60.5 -20.1797h36.0996l10.3701 51.8496c2.18945 10.9707 17.3701 60.1504 69.6299 60.1504s67.4404 -49.1797 69.6299 -60.1504l10.3701 -51.8496h36.0996l60.4902 20.1699
l50.5703 75.8301c4.89941 7.34961 14.8301 9.33984 22.1895 4.44043l13.3105 -8.88086c7.34961 -4.89941 9.33984 -14.8291 4.43945 -22.1895l-53.5996 -80.4102c-3.91504 -5.87012 -9.69238 -10.3359 -16.5098 -12.6104l-68.9902 -24.3496h77.9404
c10.6992 0 20.6895 -5.34961 26.6191 -14.25l52.75 -79.1201c4.90039 -7.36035 2.9209 -17.29 -4.43945 -22.1895zM300 128l26.4004 35.2002c3.95996 5.26953 0.189453 12.7998 -6.40039 12.7998h-64c-6.58984 0 -10.3604 -7.53027 -6.40039 -12.7998l26.4004 -35.2002
l-26.4004 -35.2002c-3.95996 -5.26953 -0.189453 -12.7998 6.40039 -12.7998h64c6.58984 0 10.3604 7.53027 6.40039 12.7998z" />
    <glyph glyph-name="spider-web" unicode="&#xf719;" horiz-adv-x="576" 
d="M567.16 214.14c11.79 -12.3594 11.79 -31.9199 0 -44.2793l-0.0400391 -0.0400391c-56.5098 -59.3008 -97.8701 -131.58 -120.5 -210.62l-0.0302734 -0.120117c-4.71973 -16.4805 -21.5 -26.2598 -38 -22.1396l-0.0703125 0.0195312
c-38.6602 9.64941 -78.6631 14.7725 -120.294 14.7725s-82.0752 -5.12305 -120.735 -14.7725l-0.0703125 -0.0195312c-16.5 -4.12012 -33.2803 5.65918 -38 22.1396l-0.0195312 0.0595703c-22.6406 79.0703 -64.0205 151.391 -120.561 210.71
c-11.79 12.3701 -11.79 31.9199 0 44.29c56.54 59.3203 97.9199 131.641 120.55 210.71l0.0205078 0.0605469c4.71973 16.4795 21.5 26.2598 38 22.1396l0.0703125 -0.0195312c38.6602 -9.64941 78.6631 -14.7725 120.294 -14.7725s82.0752 5.12305 120.735 14.7725
l0.0703125 0.0195312c16.5 4.12012 33.2803 -5.66016 38 -22.1396l0.0195312 -0.0605469c22.6406 -79.0693 64.0205 -151.39 120.561 -210.71zM365.54 374.29c-25.5332 -3.54883 -50.4629 -5.38281 -76.9658 -5.38281s-52.5811 1.83398 -78.1143 5.38281l23.5205 -40.7402
c17.501 -3.64453 35.251 -5.56055 53.8281 -5.56055s36.71 1.91602 54.2109 5.56055zM288 239.99l23.4297 40.5801c-7.8291 -0.587891 -15.1641 -0.886719 -23.1426 -0.886719s-15.8877 0.298828 -23.7168 0.886719zM302.43 216h-0.580078l-0.290039 0.5zM288 144.01
l-23.4404 -40.5898c7.81055 0.580078 15.6201 0.990234 23.4404 0.990234s15.6396 -0.410156 23.4404 -0.990234zM223 256.59c-6.79004 -14.0898 -14.6299 -27.6602 -23.4404 -40.5898h46.8701zM169.61 34.9404l22.7998 39.5
c-11.3506 34.5195 -29.79 66.4492 -54.0098 93.5596h-45.1104c31.0312 -40.4229 56.8184 -85.1846 76.3203 -133.06zM138.4 216c23.957 26.8262 42.5117 58.6318 54.0195 93.5596l-22.8096 39.5c-19.502 -47.875 -45.2891 -92.6367 -76.3203 -133.06h45.1104zM246.43 168
h-46.8701c8.77344 -12.873 16.623 -26.4482 23.4404 -40.5898zM288 15.7197c25.9502 0 51.8203 -2.42969 77.54 -6.00977l-23.5205 40.7305c-35.5898 7.41992 -72.46 7.41992 -108.039 0l-23.5205 -40.7305c25.7197 3.58008 51.5898 6.00977 77.54 6.00977zM353 127.41
c6.81738 14.1416 14.667 27.7168 23.4404 40.5898h-46.8701zM329.56 216h46.8809c-8.77344 12.873 -16.623 26.4482 -23.4404 40.5898zM406.39 34.9404c19.502 47.875 45.2891 92.6367 76.3203 133.06h-45.1104c-24.2197 -27.1104 -42.6699 -59.04 -54.0195 -93.5596z
M437.6 216h45.1104c-31.0312 40.4229 -56.8184 85.1846 -76.3203 133.06l-22.8096 -39.5c11.5078 -34.9277 30.0625 -66.7334 54.0195 -93.5596z" />
    <glyph glyph-name="squirrel" unicode="&#xf71a;" 
d="M479.85 0c17.6699 0 31.9902 -14.3301 31.9902 -32v-16c0 -8.83984 -7.16016 -16 -15.9902 -16h-231.58c-88.4199 0 -166.329 68.1201 -168.26 156.54c-0.819336 37.5801 11.8105 71.8701 32.7402 99.54c-0.269531 0 -0.519531 -0.0800781 -0.790039 -0.0800781
c-70.6699 0 -127.96 57.3096 -127.96 128s57.29 128 127.96 128c86.2002 0 184.54 -112.89 137.33 -254.86l-34.5303 -103.85c-1.38965 -4.2002 0.879883 -8.73047 5.07031 -10.1201l15.1895 -5.0498c4.19043 -1.38965 8.7207 0.879883 10.1104 5.07031l65.3398 196.52
c15.1807 45.5596 41.3906 108.29 89.4004 108.29v-32c50.8496 0 84.9697 -40.4199 95.4102 -89.1299c4.26953 -19.96 -11.0303 -38.8701 -31.4307 -38.8701h-47.8496v-98.9102c25.7695 -8.28027 47.8496 -34.54 47.8496 -61.0898c0 -21.8799 -12.7393 -45.5996 -30.9297 -64
h30.9297zM431.87 304c-8.83008 0 -16 -7.16016 -16 -16s7.16992 -16 16 -16s15.9902 7.16016 15.9902 16s-7.16016 16 -15.9902 16z" />
    <glyph glyph-name="staff" unicode="&#xf71b;" 
d="M432 448c44.1797 0 80 -35.8203 79.9902 -80v-103.86c0 -35.71 -23.6807 -67.1094 -58.0205 -76.9199l-10.46 -2.98926l-19.5098 -33.8008c-4.41992 -7.64941 -14.21 -10.2793 -21.8604 -5.85938l-32.25 18.6201l-84.8193 -24.2402
c-13.2539 -3.78906 -25.1318 -10.8848 -34.6201 -20.3701l-175.55 -175.55c-9.37012 -9.37012 -24.5703 -9.37012 -33.9404 0l-33.9297 33.9297c-9.37012 9.37012 -9.37012 24.5703 0 33.9404l88.9697 88.9795v44.1201c0 8.83984 7.16016 16 16 16h44.1201l26.4795 26.4805
c20.8594 20.8516 46.9746 36.4512 76.1104 44.7793l157.29 44.9404v75.7998h-50.3301l-11.5801 -23.1504c-3.95996 -7.90918 -13.5703 -11.1094 -21.4697 -7.15918l-57.25 28.6299c-7.90039 3.94922 -11.1006 13.5596 -7.15039 21.46l16 32
c13.5498 27.0996 41.25 44.2197 71.5498 44.2197h76.2305z" />
    <glyph glyph-name="sword" unicode="&#xf71c;" 
d="M110.11 220.41l174.3 -174.3c6.25 -6.25 6.25 -16.3799 0 -22.6299l-18.7998 -18.79c-5.39062 -5.39062 -13.8408 -6.23047 -20.1904 -2l-80.0898 53.3896l-53.4297 -53.4297l14.6299 -29.2607c0.93457 -1.86621 1.47168 -3.9873 1.47168 -6.21582
c0 -3.83105 -1.55664 -7.30176 -4.07227 -9.81348l-17.29 -17.29c-5.41992 -5.41992 -14.2197 -5.41992 -19.6396 0l-82.9297 82.9297c-5.41992 5.41992 -5.41992 14.21 0 19.6396l17.2793 17.29c2.5166 2.51367 6.00488 4.05859 9.83887 4.05859
c2.22754 0 4.33398 -0.525391 6.20117 -1.45801l29.2607 -14.6299l53.4297 53.4297l-53.3896 80.0898c-1.69141 2.53711 -2.68848 5.60254 -2.68848 8.87695c0 4.41602 1.79199 8.41602 4.68848 11.3135l18.79 18.7998c6.25 6.25 16.3799 6.25 22.6299 0zM493.73 447.84
c10.5596 1.5 19.6094 -7.5498 18.0996 -18.1094l-15.8301 -93.7305l-228.11 -228.11l-96 96l228.11 228.11z" />
    <glyph glyph-name="swords" unicode="&#xf71d;" 
d="M309.37 58.6201l-296.03 296.05l-13.2002 78.1104c-1.25977 8.7998 6.28027 16.3398 15.0801 15.0801l78.1104 -13.1904l296.04 -296.05zM507.31 -14.0596c6.25 -6.25 6.25 -16.3809 0 -22.6309l-22.6191 -22.6191c-6.25 -6.25 -16.3809 -6.25 -22.6309 0
l-59.3096 59.3096l-59.04 -31.6396c-2.24707 -1.2041 -4.83301 -1.89941 -7.55859 -1.89941c-4.41504 0 -8.41504 1.79297 -11.3115 4.68945l-17.5303 17.54c-6.25 6.23926 -6.25 16.3691 0 22.6191l129.37 129.37c6.25 6.25 16.3799 6.25 22.6299 0l17.54 -17.5293
c4.99023 -4.99023 6.12012 -12.6504 2.79004 -18.8701l-31.6396 -59.0303zM498.67 354.67l-140.04 -140.04l-80 80l140.05 140.03l78.1104 13.2002c8.79004 1.25977 16.3398 -6.28027 15.0801 -15.0801zM153.37 169.37l80 -80l-53.3701 -53.3701l24.6797 -24.6904
c6.25 -6.23926 6.25 -16.3691 0 -22.6191l-17.5293 -17.54c-4.99023 -4.99023 -12.6504 -6.12012 -18.8701 -2.79004l-59.0303 31.6396l-59.3096 -59.3096c-6.25 -6.25 -16.3809 -6.25 -22.6309 0l-22.6191 22.6191c-6.25 6.25 -6.25 16.3809 0 22.6309l59.3096 59.3096
l-31.6396 59.04c-1.2041 2.24707 -1.89941 4.83301 -1.89941 7.55859c0 4.41504 1.79199 8.41504 4.68945 11.3115l17.54 17.5303c6.23926 6.25 16.3691 6.25 22.6191 0l24.6904 -24.6904z" />
    <glyph glyph-name="tombstone" unicode="&#xf720;" 
d="M496 0c8.83984 0 16 -7.16016 16 -16v-32c0 -8.83984 -7.16016 -16 -16 -16h-480c-8.83984 0 -16 7.16016 -16 16v32c0 8.83984 7.16016 16 16 16h480zM448 256v-224h-384v224c0 106.04 85.96 192 192 192s192 -85.96 192 -192zM352 264v16c0 8.83984 -7.16016 16 -16 16
h-56v48c0 8.83984 -7.16016 16 -16 16h-16c-8.83984 0 -16 -7.16016 -16 -16v-48h-56c-8.83984 0 -16 -7.16016 -16 -16v-16c0 -8.83984 7.16016 -16 16 -16h56v-128c0 -8.83984 7.16016 -16 16 -16h16c8.83984 0 16 7.16016 16 16v128h56c8.83984 0 16 7.16016 16 16z" />
    <glyph glyph-name="tombstone-alt" unicode="&#xf721;" 
d="M496 0c8.83984 0 16 -7.16016 16 -16v-32c0 -8.83984 -7.16016 -16 -16 -16h-480c-8.83984 0 -16 7.16016 -16 16v32c0 8.83984 7.16016 16 16 16h480zM448 256v-224h-384v224c0 106.04 85.96 192 192 192s192 -85.96 192 -192z" />
    <glyph glyph-name="tractor" unicode="&#xf722;" horiz-adv-x="640" 
d="M528 112c48.5996 0 88 -39.4004 88 -88s-39.4004 -88 -88 -88s-88 39.4004 -88 88s39.4004 88 88 88zM528 0c13.2305 0 24 10.7695 24 24s-10.7695 24 -24 24s-24 -10.7695 -24 -24s10.7695 -24 24 -24zM608 288c17.6699 0 32 -14.3301 31.9902 -32v-50.7598
c0 -8.49023 -3.37012 -16.6299 -9.37012 -22.6299l-50.8203 -50.8203c-15.7295 7.58984 -33.1602 12.2002 -51.7998 12.2002c-39.1396 0 -73.5498 -19.0098 -95.46 -48h-80.54v-6c0 -12.1504 -9.84961 -22 -22 -22h-7.16016
c-2.9502 -9.90039 -6.91992 -19.46 -11.9102 -28.7207l5.06055 -5.05957c8.58984 -8.58984 8.58984 -22.5195 0 -31.1104l-31.1104 -31.1094c-8.58984 -8.58984 -22.5195 -8.58984 -31.1104 0l-5.05957 5.05957c-9.25977 -4.99023 -18.8203 -8.95996 -28.7197 -11.9102
v-7.13965c0 -12.1504 -9.85059 -22 -22 -22h-44c-12.1504 0 -22 9.84961 -22 22v7.15039c-9.90039 2.94922 -19.46 6.91992 -28.7207 11.9092l-5.05957 -5.05957c-8.58984 -8.58984 -22.5195 -8.58984 -31.1104 0l-31.1094 31.1104
c-8.58984 8.58984 -8.58984 22.5195 0 31.1094l5.05957 5.06055c-4.99023 9.26953 -8.9502 18.8193 -11.9102 28.7295h-7.13965c-12.1504 0 -22 9.85059 -22 22v44c0 12.1504 9.84961 22 22 22h7.15039c2.94922 9.90039 6.91992 19.46 11.9092 28.7207l-5.05957 5.05957
c-8.58984 8.58984 -8.58984 22.5195 0 31.1104l31.1104 31.1094c7.92969 7.93066 20.2598 8.2002 28.8896 1.4707v146.52c0 26.4697 21.5303 48 48 48h133.45c0.015625 0 0.00878906 0.0341797 0.0244141 0.0341797c19.7969 0 36.8047 -12.0312 44.1055 -29.1738
l56.0898 -130.86h102.33v40.2002c0 29.9902 10.5801 58.8994 29.5 81.7197c6.37988 7.7002 18.04 8.23047 24.7002 0.780273l21.6299 -24.1699c4.87012 -5.43066 5.74023 -13.6904 1.32031 -19.4902c-8.4502 -11.0801 -13.1504 -24.7197 -13.1504 -38.8398v-40.2002h64z
M176 32c44.1797 0 80 35.8203 80 80s-35.8203 80 -80 80s-80 -35.8203 -80 -80s35.8203 -80 80 -80zM198 288h110.04l-41.1504 96h-106.89v-96h38z" />
    <glyph glyph-name="treasure-chest" unicode="&#xf723;" horiz-adv-x="576" 
d="M0 0v160h96v-192h-64c-17.6699 0 -32 14.3301 -32 32zM0 320c0 53.0195 42.9805 96 96 96v-224h-96v128zM352 112v48h96v-192h-320v192h96v-48c0 -8.83984 7.16016 -16 16 -16h96c8.83984 0 16 7.16016 16 16zM480 -32v192h96v-160c0 -17.6699 -14.3301 -32 -32 -32h-64z
M128 192v224h320v-224h-96v48c0 8.83984 -7.16016 16 -16 16h-96c-8.83984 0 -16 -7.16016 -16 -16v-48h-96zM480 416c53.0195 0 96 -42.9805 96 -96v-128h-96v224zM304 144c0 -8.83984 -7.16016 -16 -16 -16s-16 7.16016 -16 16v64c0 8.83984 7.16016 16 16 16
s16 -7.16016 16 -16v-64z" />
    <glyph glyph-name="trees" unicode="&#xf724;" horiz-adv-x="640" 
d="M298.42 160l79.9004 -90.4902c6 -6.79004 7.35938 -16.0898 3.55957 -24.2598c-3.75 -8.0498 -12 -13.25 -21.0098 -13.25h-136.87v-24.4502l30.29 -48.3994c5.32031 -10.6406 -2.41992 -23.1602 -14.3096 -23.1602h-95.9609
c-11.8896 0 -19.6299 12.5195 -14.3096 23.1602l30.29 48.3994v24.4502h-136.86c-9.00977 0 -17.2598 5.2002 -21.0098 13.25c-3.7998 8.16992 -2.43945 17.4697 3.56055 24.2598l79.8896 90.4902h-30.6299c-9.02051 0 -16.9805 5 -20.7803 13.0498
c-3.79004 8.0498 -2.54004 17.2598 3.27051 24.04l78.1396 90.9102h-28.8896c-9.10059 0 -17.3008 5.34961 -20.8701 13.6104c-3.51074 8.12988 -1.86035 17.5898 4.23926 24.0801l110.28 117.479c6.04004 6.4502 17.29 6.4502 23.3203 0l110.27 -117.479
c6.10059 -6.49023 7.76074 -15.9502 4.24023 -24.0801c-3.55957 -8.26074 -11.7598 -13.6104 -20.8604 -13.6104h-28.8896l78.1299 -90.8896c5.83008 -6.79004 7.08008 -16.0107 3.28027 -24.0508c-3.7998 -8.05957 -11.7705 -13.0596 -20.7803 -13.0596h-30.6299z
M634.31 69.5098c6 -6.79004 7.36035 -16.0898 3.57031 -24.2598c-3.75 -8.0498 -12 -13.25 -21.0098 -13.25h-136.87v-24.4502l30.29 -48.3896c5.32031 -10.6406 -2.41992 -23.1602 -14.3096 -23.1602h-95.9609c-11.8896 0 -19.6299 12.5195 -14.3096 23.1602l30.29 48.3994
v56.4502c-0.30957 12.54 -5 16.8906 -13.6504 26.6904l-41.6191 47.1494c7.64941 5.34082 13.9199 12.6904 18.1094 21.5801c9.10059 19.29 5.99023 42.2705 -7.93945 58.5205l-41.54 48.3193c7.87988 5.65039 14.2598 13.4102 18.2598 22.6807
c7.62988 17.6602 4.75 37.5898 -6.33984 52.96l95.0596 101.26c6.04004 6.4502 17.29 6.4502 23.3203 0l110.27 -117.479c6.10059 -6.49023 7.76074 -15.9502 4.24023 -24.0801c-3.55957 -8.26074 -11.7598 -13.6104 -20.8604 -13.6104h-28.8896l78.1299 -90.8896
c5.83008 -6.79004 7.08008 -16.0107 3.28027 -24.0508c-3.7998 -8.05957 -11.7705 -13.0596 -20.7803 -13.0596h-30.6299z" />
    <glyph glyph-name="turtle" unicode="&#xf726;" horiz-adv-x="576" 
d="M68.25 192c-23.54 0 -40.9805 19.7998 -35.0996 40.04c20.0098 68.9902 90.5293 151.96 174.439 151.96h0.820312c83.9199 0 154.43 -82.9697 174.45 -151.96c5.87012 -20.2402 -11.5605 -40.04 -35.1006 -40.04h-279.51zM552.28 310.75
c14.3877 -10.2842 23.7236 -27.0938 23.7295 -46.1104c0 -31.29 -25.3594 -56.6494 -56.6494 -56.6494h-40.6201c-2.82031 -22.2998 -11.21 -43.4199 -25.29 -61.7002c-14.4502 -18.75 -33.5605 -32.1104 -54.8105 -40.5303l47.21 -81.7598
c6.15039 -10.6699 -1.54004 -24 -13.8594 -24h-36.9502c-5.71973 0 -11 3.0498 -13.8604 8l-40.2998 69.7998c-25.9795 -8.51953 -45.5498 -13.7998 -84.8701 -13.7998c-39.3193 0 -58.8799 5.28027 -84.8701 13.7998l-40.2998 -69.7998
c-2.85938 -4.9502 -8.14941 -8 -13.8594 -8h-36.9502c-12.3203 0 -20.0205 13.3301 -13.8604 24l44.8301 77.6602l-98.29 22.0996c-7.58984 2.53027 -12.71 9.64062 -12.71 17.6406c0 10.2695 8.33008 18.5996 18.5996 18.5996h332.45
c20.4307 0 39.2598 9.23047 51.6807 25.3398c8.66992 11.2598 13.2393 24.5605 13.2695 38.4404v71.2197c0 3.46973 0.280273 6.87012 0.820312 10.1904c6.31934 38.7393 51.6396 57.7295 86.8096 40.3096zM480 272c8.83984 0 16 7.16016 16 16s-7.16016 16 -16 16
s-16 -7.16016 -16 -16s7.16016 -16 16 -16z" />
    <glyph glyph-name="unicorn" unicode="&#xf727;" horiz-adv-x="640" 
d="M631.98 416c7.91992 0 11.0293 -10.2695 4.43945 -14.6504l-92.4199 -36.6494l0.0498047 -71.0098c0 -0.0107422 0.0185547 -0.00683594 0.0185547 -0.0166016c0 -13.4707 -8.34277 -25.0088 -20.1387 -29.7236l-32.5498 -13.0205
c-15.4395 -6.17969 -33.04 0.5 -40.4902 15.3701l-18.8994 37.7002l-16 7.11035v-102.471c0.00976562 -0.219727 0.0800781 -0.419922 0.0800781 -0.639648c0 -30.4697 -12.2607 -58.0303 -32 -78.2197v-177.78c0 -8.83984 -7.16016 -16 -16 -16h-64
c-8.83984 0 -16 7.16016 -16 16v150.4l-102.04 22.3301l-23.8398 -63.5908l26.3096 -105.26c2.53027 -10.0996 -5.11035 -19.8799 -15.5195 -19.8799h-65.9609c-7.48633 0 -13.7783 5.16602 -15.5098 12.1201l-24.8496 99.4102
c-1.24707 4.98047 -1.8916 10.1924 -1.8916 15.5576c0 7.8916 1.43262 15.4502 4.05176 22.4316l25.7197 68.6006c-18.7002 17.5195 -30.54 42.2402 -30.54 69.8799c0 2.62988 0.570312 5.09961 0.780273 7.67969c-9.91016 -7.29004 -16.7803 -18.46 -16.7803 -31.6797v-56
c0 -8.83984 -7.16016 -16 -16 -16h-16c-8.83984 0 -16 7.16016 -16 16v56c0 48.5303 39.4697 88 88 88v-1.11035c17.5996 20.1299 43.1602 33.1104 72 33.1104h128c0 70.6904 57.3096 128 128 128h119.97c5.06055 0 8.9502 -4.67969 7.94043 -9.63965
c-1.78027 -8.73047 -6.25 -16.2207 -12.1797 -22.3604h100.25zM480 352c8.83984 0 16 7.16016 16 16s-7.16016 16 -16 16s-16 -7.16016 -16 -16s7.16016 -16 16 -16z" />
    <glyph glyph-name="user-injured" unicode="&#xf728;" horiz-adv-x="448" 
d="M277.37 436.02l-90.6904 -68.0195h-81.1895c19.0098 46.8701 64.8193 80 118.51 80c19.1104 0 37.0801 -4.46973 53.3701 -11.9805zM342.51 368h-102.52l66.0293 49.5195c15.8203 -13.3193 28.5908 -30.0498 36.4902 -49.5195zM224 192c-70.6904 0 -128 57.3096 -128 128
c0 5.48047 0.94043 10.7002 1.61035 16h252.779c0.660156 -5.2998 1.61035 -10.5195 1.61035 -16c0 -70.6904 -57.3096 -128 -128 -128zM80 148.3c9.34668 4.14844 19.4795 7.31641 29.8096 9.21973l98.4502 -221.52h-128.26v212.3zM0 -16v41.5996
c0 41.1406 18.8799 77.5107 48 102.16v-191.76c-26.5098 0 -48 21.4902 -48 48zM256 32c26.4697 0 48 -21.5303 48 -48s-21.5303 -48 -48 -48h-12.71l-42.6699 96h55.3799zM313.6 160c74.2305 0 134.4 -60.1699 134.4 -134.4v-41.5996c0 -26.5098 -21.4902 -48 -48 -48
h-80.4102c10.1504 13.4102 16.4102 29.9199 16.4102 48c0 44.1104 -35.8896 80 -80 80h-69.5898l-42.6699 96h7.37012c22.2393 -10.1797 46.8799 -16 72.8896 -16s50.6504 5.82031 72.8896 16h16.71z" />
    <glyph glyph-name="vr-cardboard" unicode="&#xf729;" horiz-adv-x="640" 
d="M608 384c17.6699 0 32 -14.3301 32 -32v-320c0 -17.6699 -14.3301 -32 -32 -32h-160.22c-25.1807 0 -48.0303 14.7695 -58.3604 37.7402l-27.7402 61.6396c-7.88965 17.54 -24.0293 28.6201 -41.6797 28.6201s-33.79 -11.0801 -41.6797 -28.6201l-27.7402 -61.6396
c-10.3301 -22.9707 -33.1699 -37.7402 -58.3604 -37.7402h-160.22c-17.6699 0 -32 14.3301 -32 32v320c0 17.6699 14.3301 32 32 32h576zM160 144c35.3496 0 64 28.6504 64 64s-28.6504 64 -64 64s-64 -28.6504 -64 -64s28.6504 -64 64 -64zM480 144
c35.3496 0 64 28.6504 64 64s-28.6504 64 -64 64s-64 -28.6504 -64 -64s28.6504 -64 64 -64z" />
    <glyph glyph-name="wand-magic" unicode="&#xf72b;" 
d="M80 288l-26.6602 53.3301l-53.3398 26.6699l53.3398 26.6602l26.6602 53.3398l26.6602 -53.3301l53.3398 -26.6699l-53.3398 -26.6699zM224 352l-16 32l-32 16l32 16l16 32l16 -32l32 -16l-32 -16zM458.66 106.67l53.3398 -26.6699l-53.3398 -26.6699l-26.6602 -53.3301
l-26.6602 53.3301l-53.3398 26.6699l53.3398 26.6699l26.6602 53.3301zM400 256h-23.6602l-279.18 -309.47c-12.2803 -13.5703 -33.4199 -14.1006 -46.3604 -1.16016l-41.4297 41.4297c-12.9404 12.9404 -12.4102 34.0801 1.16016 46.3604l117.47 105.97v36.8701
c0 8.83984 7.16016 16 16 16h42.5996l279.19 251.86c6.32031 5.71973 16.0195 5.47949 22.0498 -0.550781l19.4805 -19.4697c6.0293 -6.03027 6.26953 -15.7295 0.549805 -22.0498l-91.8701 -101.83v-27.96c0 -8.83984 -7.16016 -16 -16 -16z" />
    <glyph glyph-name="wheat" unicode="&#xf72d;" 
d="M481.7 334.45c-27.5605 -25.7305 -70.9805 -32.6602 -112.561 -29.8799c-1.22949 8.69922 -7.43945 75.6494 29.7607 113c32.2998 30.1396 83.5693 31.8193 112.55 29.8799c2.71973 -40.9199 -4.35059 -85.5703 -29.75 -113zM438.19 278.45
c26.75 -10.2402 48.6895 -31.4404 61.4492 -46.04c-24.0195 -27.4297 -56.5195 -51.04 -89.7295 -52.3203c-29.04 1 -56.6699 18.4004 -79.4004 41.1699l-41.4102 -41.4102c6.20996 1.60059 12.5801 2.7002 19.2002 2.70996
c39.2402 -1.35938 72.5205 -32.5293 89.5205 -51.9697c-24.0205 -27.4297 -56.5205 -51.04 -89.7305 -52.3203c-29.04 1 -56.6699 18.4004 -79.3994 41.1709l-41.4102 -41.4102c6.20996 1.59961 12.5801 2.7002 19.2002 2.70996
c39.2393 -1.36035 72.5195 -32.5303 89.5195 -51.9707c-24.0195 -27.4297 -56.5195 -51.0391 -89.7305 -52.3193c-29.0391 1 -56.6699 18.3994 -79.3994 41.1699l-72.2402 -72.2402c-6.25 -6.25977 -14.4395 -9.37988 -22.6299 -9.37988s-16.3701 3.12012 -22.6201 9.37012
c-12.5 12.5 -12.5 32.75 0 45.25l72.2705 72.29c-22.2705 22.5303 -39.8408 50.4502 -40.9307 78.9297c1.15039 33.4902 24.0801 65.1406 51.96 89.5205c6.24023 -4.69043 52.2305 -42.8701 52.3203 -89.7305c-0.219727 -6.33008 -1.42969 -12.4199 -3.01953 -18.3896
l41.4795 41.4795c-22.2695 22.5303 -39.8301 50.4502 -40.9297 78.9307c1.16016 33.4893 24.0898 65.1396 51.9697 89.5195c6.24023 -4.68945 52.2305 -42.8701 52.3203 -89.7295c-0.220703 -6.33008 -1.43066 -12.4209 -3.02051 -18.3906l41.4805 41.4805
c-22.2705 22.5293 -39.8398 50.4502 -40.9307 78.9297c1.16016 33.4902 24.0908 65.1396 51.9707 89.5205c4.7998 -3.60059 32.9297 -27.1006 45.79 -59.0303c-9.62988 -38.5498 -4.9707 -73.5898 -4.65039 -75.8799l3.65039 -25.7002l25.8994 -1.73047
c6.31055 -0.419922 12.6602 -0.639648 19 -0.639648c18.9404 0 36.0801 2.58008 52.1807 6.4502z" />
    <glyph glyph-name="wine-bottle" unicode="&#xf72f;" 
d="M507.31 375.43c6.25 -6.25 6.25 -16.3799 0.0107422 -22.6201l-22.6299 -22.6299c-6.25 -6.25 -16.3809 -6.25 -22.6309 0l-76.6699 -76.6699c19.7002 -46.5801 10.7305 -102.41 -27.2295 -140.37l-158.391 -158.39c-24.9893 -24.9902 -65.5195 -24.9902 -90.5098 0
l-90.5098 90.5098c-24.9902 24.9902 -24.9902 65.5205 0 90.5098l158.38 158.381c37.9697 37.96 93.79 46.9297 140.37 27.2295l76.6699 76.6699c-6.25 6.25 -6.25 16.3799 0 22.6299l22.6299 22.6299c6.25 6.25 16.3799 6.25 22.6299 0zM179.22 24.71l122.04 122.04
l-90.5098 90.5098l-122.04 -122.04z" />
  </font>
</defs>
</svg>
